Вы используете незарегистрированную версию компонента "Вкладки"!

Поиск

(Avant-Garde Jazz / Free Improvisation) [CD] Barrage Double Trio (Ken Vandermark, Mars Williams, Kent Kessler, Nate McBride, Hamid Drake, Curt Newton) - Utility Hitter - 1996, FLAC (tracks+.cue), lossless

(Avant-Garde Jazz / Free Improvisation) [CD] Barrage Double Trio (Ken Vandermark, Mars Williams, Kent Kessler, Nate McBride, Hamid Drake, Curt Newton) - Utility Hitter - 1996, FLAC (tracks+.cue), lossless
Треклист:
Barrage Double Trio - Utility Hitter
Жанр: Avant-Garde Jazz / Free Improvisation
Носитель: CD
Страна-производитель диска (релиза): USA
Год издания: 1996
Издатель (лейбл): Quinnah Records
Номер по каталогу: Q09
Аудиокодек: FLAC (*.flac)
Тип рипа: tracks+.cue
Битрейт аудио: lossless
Продолжительность: 01:07:15
Источник (релизер): what.cd / спасибо box
Наличие сканов в содержимом раздачи: нет
Треклист:
1. Over and Both (dedicated to Eddie 'Lockjaw' Davis and Johnny Griffin) (05:15)
2. Chicago Trio (02:39)
3. Agamemnon Sleeps (dedicated to Charles Mingus) (15:46)
4. Bass Duo (03:14)
5. Turn Your Head (dedicated to Ornette Coleman) (04:49)
6. Tenor Duo (01:56)
7. There Is No Reason (dedicated to Don Cherry) (08:51)
8. Drum Duo (03:31)
9. East River Suite (dedicated to Albert Ayler) (12:40)
10. Boston Trio (02:19)
11. Polarity (dedicated to Andrew Hill) (06:12)
1, 3, 5, 7, 9, 11 are compositions by Ken Vandermark
2, 4, 6, 8, 10 are free improvisations
Доп. информация:
Musicians:
Ken Vandermark - tenor sax, B-flat and bass clarinet
Mars Williams - tenor, alto and soprano sax, B-flat clarinet
Kent Kessler - acoustic bass
Nate McBride - acoustic and electric bass
Hamid Drake - trap set, hand drums
Curt Newton - trap set, percussion
Left Channel: Chicago Trio (Drake, Kessler, Williams)
Right Channel: Boston Trio (McBride, Newton, Vandermark)
Recorded at Loose Booty Studio, Chicago, September 9-10, 1995
Ken Vandermark Official Site
Ken Vandermark from Wikipedia, the free encyclopedia
Mars Williams Official Site
Mars Williams from Wikipedia, the free encyclopedia
 
... photo ...

Лог создания рипа
Exact Audio Copy V0.99 prebeta 5 from 4. May 2009
EAC extraction logfile from 16. February 2011, 12:32
Barrage Double Trio / Utility Hitter
Used drive : SAMSUNG CDRW/DVD SM-308B Adapter: 0 ID: 0
Read mode : Secure
Utilize accurate stream : Yes
Defeat audio cache : Yes
Make use of C2 pointers : No
Read offset correction : 120
Overread into Lead-In and Lead-Out : No
Fill up missing offset samples with silence : Yes
Delete leading and trailing silent blocks : No
Null samples used in CRC calculations : Yes
Used interface : Native Win32 interface for Win NT & 2000
Gap handling : Appended to previous track
Used output format : User Defined Encoder
Selected bitrate : 192 kBit/s
Quality : High
Add ID3 tag : Yes
Command line compressor : C:\Documents and Settings\jhudak\Desktop\Joe\Exact Audio Copy\FLAC\flac.exe
Additional command line options : -V -8 -T "artist=%a" -T "title=%t" -T "album=%g" -T "date=%y" -T "tracknumber=%n" -T "genre=%m" %s
TOC of the extracted CD
Track | Start | Length | Start sector | End sector
---------------------------------------------------------
1 | 0:00.32 | 5:19.03 | 32 | 23959
2 | 5:19.35 | 2:43.30 | 23960 | 36214
3 | 8:02.65 | 15:51.62 | 36215 | 107601
4 | 23:54.52 | 3:18.03 | 107602 | 122454
5 | 27:12.55 | 4:53.05 | 122455 | 144434
6 | 32:05.60 | 2:00.22 | 144435 | 153456
7 | 34:06.07 | 8:54.13 | 153457 | 193519
8 | 43:00.20 | 3:35.65 | 193520 | 209709
9 | 46:36.10 | 12:45.30 | 209710 | 267114
10 | 59:21.40 | 2:23.00 | 267115 | 277839
11 | 61:44.40 | 6:12.10 | 277840 | 305749
Track 1
Filename C:\Documents and Settings\jhudak\Desktop\Joe\Barrage Double Trio - Utility Hitter (1996)\Barrage Double Trio - 01 - Over and Both.wav
Pre-gap length 0:00:02.32
Peak level 100.0 %
Track quality 100.0 %
Test CRC AFCF77A0
Copy CRC AFCF77A0
Accurately ripped (confidence 3) [FF7210EA]
Copy OK
Track 2
Filename C:\Documents and Settings\jhudak\Desktop\Joe\Barrage Double Trio - Utility Hitter (1996)\Barrage Double Trio - 02 - Chicago Trio.wav
Pre-gap length 0:00:03.40
Peak level 47.0 %
Track quality 100.0 %
Test CRC 1C19EFCF
Copy CRC 1C19EFCF
Accurately ripped (confidence 3) [ECFECE33]
Copy OK
Track 3
Filename C:\Documents and Settings\jhudak\Desktop\Joe\Barrage Double Trio - Utility Hitter (1996)\Barrage Double Trio - 03 - Agamemnon Sleeps.wav
Pre-gap length 0:00:03.41
Peak level 100.0 %
Track quality 100.0 %
Test CRC 370EC84F
Copy CRC 370EC84F
Accurately ripped (confidence 3) [0A8B1E02]
Copy OK
Track 4
Filename C:\Documents and Settings\jhudak\Desktop\Joe\Barrage Double Trio - Utility Hitter (1996)\Barrage Double Trio - 04 - Bass duo.wav
Pre-gap length 0:00:05.46
Peak level 52.8 %
Track quality 100.0 %
Test CRC 4C4C6914
Copy CRC 4C4C6914
Accurately ripped (confidence 3) [CFD4EAF5]
Copy OK
Track 5
Filename C:\Documents and Settings\jhudak\Desktop\Joe\Barrage Double Trio - Utility Hitter (1996)\Barrage Double Trio - 05 - Turn your head.wav
Pre-gap length 0:00:04.31
Peak level 100.0 %
Track quality 100.0 %
Test CRC 7699F729
Copy CRC 7699F729
Accurately ripped (confidence 3) [66ECDC99]
Copy OK
Track 6
Filename C:\Documents and Settings\jhudak\Desktop\Joe\Barrage Double Trio - Utility Hitter (1996)\Barrage Double Trio - 06 - Tenor duo.wav
Pre-gap length 0:00:03.55
Peak level 45.4 %
Track quality 100.0 %
Test CRC 2AB04531
Copy CRC 2AB04531
Accurately ripped (confidence 3) [AC9C7EDE]
Copy OK
Track 7
Filename C:\Documents and Settings\jhudak\Desktop\Joe\Barrage Double Trio - Utility Hitter (1996)\Barrage Double Trio - 07 - There is no reason.wav
Pre-gap length 0:00:03.54
Peak level 100.0 %
Track quality 100.0 %
Test CRC A8E2D6AF
Copy CRC A8E2D6AF
Accurately ripped (confidence 3) [64F8033D]
Copy OK
Track 8
Filename C:\Documents and Settings\jhudak\Desktop\Joe\Barrage Double Trio - Utility Hitter (1996)\Barrage Double Trio - 08 - Drum duo.wav
Pre-gap length 0:00:03.42
Peak level 100.0 %
Track quality 99.9 %
Test CRC 41D717E5
Copy CRC 41D717E5
Accurately ripped (confidence 3) [89D2F11D]
Copy OK
Track 9
Filename C:\Documents and Settings\jhudak\Desktop\Joe\Barrage Double Trio - Utility Hitter (1996)\Barrage Double Trio - 09 - East River suite.wav
Pre-gap length 0:00:03.45
Peak level 100.0 %
Track quality 99.9 %
Test CRC DA6A2A21
Copy CRC DA6A2A21
Accurately ripped (confidence 3) [0E377487]
Copy OK
Track 10
Filename C:\Documents and Settings\jhudak\Desktop\Joe\Barrage Double Trio - Utility Hitter (1996)\Barrage Double Trio - 10 - Boston trio.wav
Pre-gap length 0:00:05.52
Peak level 28.9 %
Track quality 100.0 %
Test CRC A77EE7DA
Copy CRC A77EE7DA
Accurately ripped (confidence 3) [F006EBAA]
Copy OK
Track 11
Filename C:\Documents and Settings\jhudak\Desktop\Joe\Barrage Double Trio - Utility Hitter (1996)\Barrage Double Trio - 11 - Polarity.wav
Pre-gap length 0:00:03.47
Peak level 100.0 %
Track quality 100.0 %
Test CRC D134169F
Copy CRC D134169F
Accurately ripped (confidence 3) [BED08668]
Copy OK
All tracks accurately ripped
No errors occurred
End of status report
 
Содержание индексной карты (.CUE)
REM GENRE Jazz
REM DATE 1996
REM DISCID A10FEC0B
REM COMMENT "ExactAudioCopy v0.99pb5"
PERFORMER "Barrage Double Trio"
TITLE "Utility Hitter"
FILE "01 - Over and Both.wav" WAVE
TRACK 01 AUDIO
TITLE "Over and Both"
PERFORMER "Barrage Double Trio"
PREGAP 00:00:32
INDEX 01 00:00:00
TRACK 02 AUDIO
TITLE "Chicago Trio"
PERFORMER "Barrage Double Trio"
INDEX 00 05:15:38
FILE "02 - Chicago Trio.wav" WAVE
INDEX 01 00:00:00
TRACK 03 AUDIO
TITLE "Agamemnon Sleeps"
PERFORMER "Barrage Double Trio"
INDEX 00 02:39:64
FILE "03 - Agamemnon Sleeps.wav" WAVE
INDEX 01 00:00:00
TRACK 04 AUDIO
TITLE "Bass duo"
PERFORMER "Barrage Double Trio"
INDEX 00 15:46:16
FILE "04 - Bass duo.wav" WAVE
INDEX 01 00:00:00
TRACK 05 AUDIO
TITLE "Turn your head"
PERFORMER "Barrage Double Trio"
INDEX 00 03:13:47
FILE "05 - Turn your head.wav" WAVE
INDEX 01 00:00:00
TRACK 06 AUDIO
TITLE "Tenor duo"
PERFORMER "Barrage Double Trio"
INDEX 00 04:49:25
FILE "06 - Tenor duo.wav" WAVE
INDEX 01 00:00:00
TRACK 07 AUDIO
TITLE "There is no reason"
PERFORMER "Barrage Double Trio"
INDEX 00 01:56:43
FILE "07 - There is no reason.wav" WAVE
INDEX 01 00:00:00
TRACK 08 AUDIO
TITLE "Drum duo"
PERFORMER "Barrage Double Trio"
INDEX 00 08:50:46
FILE "08 - Drum duo.wav" WAVE
INDEX 01 00:00:00
TRACK 09 AUDIO
TITLE "East River suite"
PERFORMER "Barrage Double Trio"
INDEX 00 03:32:20
FILE "09 - East River suite.wav" WAVE
INDEX 01 00:00:00
TRACK 10 AUDIO
TITLE "Boston trio"
PERFORMER "Barrage Double Trio"
INDEX 00 12:39:53
FILE "10 - Boston trio.wav" WAVE
INDEX 01 00:00:00
TRACK 11 AUDIO
TITLE "Polarity"
PERFORMER "Barrage Double Trio"
INDEX 00 02:19:28
FILE "11 - Polarity.wav" WAVE
INDEX 01 00:00:00
 
auCDtect Task Manager
-----------------------
DON'T MODIFY THIS FILE
-----------------------
PERFORMER: auCDtect Task Manager, ver. 1.5.1RC6 build 1.5.1.7
Copyright (c) 2008-2010 y-soft. All rights reserved
http://y-soft.org
ANALYZER: auCDtect: CD records authenticity detector, version 0.8.2
Copyright (c) 2004 Oleg Berngardt. All rights reserved.
Copyright (c) 2004 Alexander Djourik. All rights reserved.
FILE: 11 - Polarity.flac
Size: 37175637 Hash: 3E3DF713908C9DD595CF86AB764DA75E Accuracy: -m0
Conclusion: CDDA 100%
Signature: 1C6B7B403A5CA3A2D24C6773D235230EBCF8D0AD
FILE: 10 - Boston trio.flac
Size: 9843717 Hash: 408380D43F0B1D31BDBD82E3D284B55A Accuracy: -m0
Conclusion: CDDA 100%
Signature: 4F4C5F98DEE917BD2C3A817DB3FDCCB96F02041E
FILE: 09 - East River suite.flac
Size: 84501960 Hash: 0D9EDC48DFB40DDE02769ACC069DF0E9 Accuracy: -m0
Conclusion: CDDA 100%
Signature: 8B4C4565083BAC83DF0F9987D9E5FBC007D2908F
FILE: 08 - Drum duo.flac
Size: 20066442 Hash: 8CC3B115C8A7B0B691454DECBF924845 Accuracy: -m0
Conclusion: CDDA 100%
Signature: C3BD691023A58863CF9987EF0DE1561110CA8BF8
FILE: 07 - There is no reason.flac
Size: 41815801 Hash: BA531FC850D9623C882617CE05AF8F86 Accuracy: -m0
Conclusion: CDDA 99%
Signature: C3414D68C4ABED0D66F0FE69F8633EBFD67C50D6
FILE: 06 - Tenor duo.flac
Size: 8875403 Hash: 54F29D6485A22D78E0CE4F3A40D300F8 Accuracy: -m0
Conclusion: CDDA 100%
Signature: 0AE20A1A551D29B87D9301020CB9CA1EC2F94988
FILE: 05 - Turn your head.flac
Size: 32914160 Hash: 90808822F25A3A0ACD88B70655581659 Accuracy: -m0
Conclusion: CDDA 100%
Signature: AB9179D4390450680F8AF38F48EFEED45CEDF505
FILE: 04 - Bass duo.flac
Size: 10777053 Hash: 801A4CBC8B618EF98CCAA41B5BC9FAFE Accuracy: -m0
Conclusion: CDDA 100%
Signature: 9548B517A1784B144B07371C589B9FC9BB98FDAF
FILE: 03 - Agamemnon Sleeps.flac
Size: 86432409 Hash: FA12C903FAA4BB9EC728EDE2D1AEA6EC Accuracy: -m0
Conclusion: CDDA 100%
Signature: AD9F2018B098FD4E3C2C7F6B294293A5FB417B05
FILE: 02 - Chicago Trio.flac
Size: 10764775 Hash: 9A9199D5D543819271C1B8E1E4A546D2 Accuracy: -m0
Conclusion: CDDA 99%
Signature: 2AAE61FC9E346064E57BB1BB2FBB0A6E8D047045
FILE: 01 - Over and Both.flac
Size: 36533633 Hash: 490335E0C41E7A57DB99CE4330BD72D7 Accuracy: -m0
Conclusion: CDDA 100%
Signature: 118FCA30B388FC0E9F353A52CC771BA5A82EE261
... релизы с участием KEN VANDERMARK на трекере ...
По всем вопросам пишите личное сообщение пользователю M0p94ok.
07:02
142
Нет комментариев. Ваш будет первым!