Вы используете незарегистрированную версию компонента "Вкладки"!

Поиск

(Avant-Garde Jazz / Free Improvisation / Modern Creative) [CD] The Vandermark Quartet (Ken Vandermark, Daniel Scanlan, Kent Kessler, Michael Zerang) - Solid Action - 1994, FLAC (tracks+.cue), lossless

(Avant-Garde Jazz / Free Improvisation / Modern Creative) [CD] The Vandermark Quartet (Ken Vandermark, Daniel Scanlan, Kent Kessler, Michael Zerang) - Solid Action - 1994, FLAC (tracks+.cue), lossless
Треклист:
The Vandermark Quartet - Solid Action
Жанр: Avant-Garde Jazz / Free Improvisation / Modern Creative
Носитель: CD
Страна-производитель диска (релиза): USA
Год издания: 1994
Издатель (лейбл): Platypus Records
Номер по каталогу: PP002
Аудиокодек: FLAC (*.flac)
Тип рипа: tracks+.cue
Битрейт аудио: lossless
Продолжительность: 01:01:26
Источник (релизер): what.cd / спасибо sisterray_
Наличие сканов в содержимом раздачи: нет
Треклист:
1. Tasteless (04:14)
2. Catch 22 (15:32)
3. Le Saucisse De Fer (06:40)
4. Bucket (14:36)
5. Leadfoot (05:30)
6. For What It Is (05:24)
7. Let's Talk About Death (09:18)
Доп. информация:
Musicians:
Ken Vandermark - tenor saxophone, clarinet, bass clarinet
Daniel Scanlan - violin, guitar, cornet
Kent Kessler - bass
Michael Zerang - drums
Recorded May 29 & 30, 1994, Acme Recording Studio, Chicago
The Vandermark Quartet - Solid Action allmusic.com
Ken Vandermark Official Site
Ken Vandermark from Wikipedia, the free encyclopedia
Michael Zerang Official Site
 
... review ...
There is something electrifying about going back in time to listen to the early music of Ken Vandermark's original quartet. Along with Michael Zerang (drums), Daniel Scanlan (guitar, violin, cornet), and Kent Kessler (bass), this foursome issued some wildly adventurous and fierce music in the 1990s. This date from 1994 showcases the unit in a set that was almost all composed by Vandermark ("Le Saucisse de Fer" was composed by Zerang). As such, the music here takes on measures of raucous jazz riffing, rock pyrotechnics, and woolly, intense improvisation. Dynamic was not yet a primary aspect of Vandermark's attack and therefore the pieces here, with the exception of the 15-and-a-half-minute suite "Catch 22," concern themselves more with going for the throat and harnessing a nearly unbridled energy than they do with textural meditations. That said, Solid Action is not merely a blowing session. The pieces are wrapped tightly in the aesthetic Vandermark has always pursued, finding the terrain where musics come together just before their seams show. There is the angularity of funk and rock as it meets hard bop in "Tasteless," and there is the vanguard arpeggiated soprano counterpoint invention (in concert first with Zerang and then with Scanlan) in "Bucket," which gives way to a bluesed-out skronk. There is the dubby backbeat of Kessler's bassline in "Leadfoot," which opens onto a melody line that is part film noir soundtrack serial music and part cartoon theme song. And these are just a few examples. What the album does display in spades is that, even at this early juncture, the Vandermark Quartet were interested in pursuing a disciplined approach to both compositional elocution and improvisational articulation. Listening to this music now is breathtaking; it feels shamanic and brave and it engages the listener immediately with the force of both conviction and humor.
Thom Jurek ~ AMG
 
Лог создания рипа
X Lossless Decoder version 20130127 (142.3)
XLD extraction logfile from 2013-03-27 16:36:46 -0400
Vandermark Quartet / Solid Action
Used drive : MATSHITA DVD-R UJ-8A8 (revision HA13)
Media type : Pressed CD
Ripper mode : XLD Secure Ripper
Disable audio cache : OK for the drive with a cache less than 1375KiB
Make use of C2 pointers : NO
Read offset correction : 102
Max retry count : 20
Gap status : Analyzed, Appended (except HTOA)
TOC of the extracted CD
Track | Start | Length | Start sector | End sector
---------------------------------------------------------
1 | 00:00:00 | 04:15:60 | 0 | 19184
2 | 04:15:60 | 15:34:45 | 19185 | 89279
3 | 19:50:30 | 06:41:67 | 89280 | 119421
4 | 26:32:22 | 14:38:08 | 119422 | 185279
5 | 41:10:30 | 05:33:45 | 185280 | 210299
6 | 46:44:00 | 05:25:42 | 210300 | 234716
7 | 52:09:42 | 09:17:00 | 234717 | 276491
AccurateRip Summary (DiscID: 00115054-00682c2e-570e6607)
Track 01 : OK (v1, confidence 3/3)
Track 02 : OK (v1, confidence 3/3)
Track 03 : OK (v1, confidence 3/3)
Track 04 : OK (v1, confidence 3/3)
Track 05 : OK (v1, confidence 3/3)
Track 06 : OK (v1, confidence 3/3)
Track 07 : OK (v1, confidence 3/3)
->All tracks accurately ripped.
All Tracks
Album gain : -7.87 dB
Peak : 0.999969
Statistics
Read error : 0
Jitter error (maybe fixed) : 0
Retry sector count : 0
Damaged sector count : 0
Track 01
Filename : /Users/ho2075/Desktop/Vandermark Quartet - Solid Action (1994) [FLAC]/01 Tastless.flac
Pre-gap length : 00:02:00
Track gain : -9.01 dB
Peak : 0.999969
CRC32 hash (test run) : A480C669
CRC32 hash : A480C669
CRC32 hash (skip zero) : 3E3B19A5
AccurateRip v1 signature : 86936C3A
AccurateRip v2 signature : AC9E9450
->Accurately ripped (v1, confidence 3/3)
Statistics
Read error : 0
Jitter error (maybe fixed) : 0
Retry sector count : 0
Damaged sector count : 0
Track 02
Filename : /Users/ho2075/Desktop/Vandermark Quartet - Solid Action (1994) [FLAC]/02 Catch 22.flac
Track gain : -7.84 dB
Peak : 0.999939
CRC32 hash (test run) : CE325237
CRC32 hash : CE325237
CRC32 hash (skip zero) : 0E8007FD
AccurateRip v1 signature : 750B3CF4
AccurateRip v2 signature : B7C4B2FB
->Accurately ripped (v1, confidence 3/3)
Statistics
Read error : 0
Jitter error (maybe fixed) : 0
Retry sector count : 0
Damaged sector count : 0
Track 03
Filename : /Users/ho2075/Desktop/Vandermark Quartet - Solid Action (1994) [FLAC]/03 Le Saucisse De Fer.flac
Track gain : -7.55 dB
Peak : 0.999969
CRC32 hash (test run) : 55C80D1A
CRC32 hash : 55C80D1A
CRC32 hash (skip zero) : A65FD82C
AccurateRip v1 signature : 35B18164
AccurateRip v2 signature : 3EB801B6
->Accurately ripped (v1, confidence 3/3)
Statistics
Read error : 0
Jitter error (maybe fixed) : 0
Retry sector count : 0
Damaged sector count : 0
Track 04
Filename : /Users/ho2075/Desktop/Vandermark Quartet - Solid Action (1994) [FLAC]/04 Bucket.flac
Track gain : -5.57 dB
Peak : 0.999969
CRC32 hash (test run) : F2026E12
CRC32 hash : F2026E12
CRC32 hash (skip zero) : C0745ED5
AccurateRip v1 signature : 0E008925
AccurateRip v2 signature : 57F7418C
->Accurately ripped (v1, confidence 3/3)
Statistics
Read error : 0
Jitter error (maybe fixed) : 0
Retry sector count : 0
Damaged sector count : 0
Track 05
Filename : /Users/ho2075/Desktop/Vandermark Quartet - Solid Action (1994) [FLAC]/05 Leadfoot.flac
Track gain : -8.45 dB
Peak : 0.999969
CRC32 hash (test run) : 0EA5327A
CRC32 hash : 0EA5327A
CRC32 hash (skip zero) : 90E720D6
AccurateRip v1 signature : EF33EC8F
AccurateRip v2 signature : 0ACEC9EB
->Accurately ripped (v1, confidence 3/3)
Statistics
Read error : 0
Jitter error (maybe fixed) : 0
Retry sector count : 0
Damaged sector count : 0
Track 06
Filename : /Users/ho2075/Desktop/Vandermark Quartet - Solid Action (1994) [FLAC]/06 For What It Is.flac
Track gain : -5.62 dB
Peak : 0.999969
CRC32 hash (test run) : B21AC0D2
CRC32 hash : B21AC0D2
CRC32 hash (skip zero) : 5F086B3A
AccurateRip v1 signature : 13D5AB0D
AccurateRip v2 signature : FBF91345
->Accurately ripped (v1, confidence 3/3)
Statistics
Read error : 0
Jitter error (maybe fixed) : 0
Retry sector count : 0
Damaged sector count : 0
Track 07
Filename : /Users/ho2075/Desktop/Vandermark Quartet - Solid Action (1994) [FLAC]/07 Let's Talk About Death.flac
Track gain : -8.49 dB
Peak : 0.999969
CRC32 hash (test run) : 96876E61
CRC32 hash : 96876E61
CRC32 hash (skip zero) : 9D5C22B0
AccurateRip v1 signature : C04CE731
AccurateRip v2 signature : 873E1197
->Accurately ripped (v1, confidence 3/3)
Statistics
Read error : 0
Jitter error (maybe fixed) : 0
Retry sector count : 0
Damaged sector count : 0
No errors occurred
End of status report
 
Содержание индексной карты (.CUE)
TITLE "Solid Action"
PERFORMER "Vandermark Quartet"
REM GENRE "Jazz"
REM DATE "1994"
REM DISCNUMBER 1
REM TOTALDISCS 1
REM DISCID 570E6607
REM REPLAYGAIN_ALBUM_GAIN -7.87 dB
REM REPLAYGAIN_ALBUM_PEAK 0.999969
FILE "01 Tastless.flac" WAVE
TRACK 01 AUDIO
TITLE "Tastless"
REM REPLAYGAIN_TRACK_GAIN -9.01 dB
REM REPLAYGAIN_TRACK_PEAK 0.999969
INDEX 01 00:00:00
FILE "02 Catch 22.flac" WAVE
TRACK 02 AUDIO
TITLE "Catch 22"
REM REPLAYGAIN_TRACK_GAIN -7.84 dB
REM REPLAYGAIN_TRACK_PEAK 0.999939
INDEX 01 00:00:00
FILE "03 Le Saucisse De Fer.flac" WAVE
TRACK 03 AUDIO
TITLE "Le Saucisse De Fer"
REM REPLAYGAIN_TRACK_GAIN -7.55 dB
REM REPLAYGAIN_TRACK_PEAK 0.999969
INDEX 01 00:00:00
FILE "04 Bucket.flac" WAVE
TRACK 04 AUDIO
TITLE "Bucket"
REM REPLAYGAIN_TRACK_GAIN -5.57 dB
REM REPLAYGAIN_TRACK_PEAK 0.999969
INDEX 01 00:00:00
FILE "05 Leadfoot.flac" WAVE
TRACK 05 AUDIO
TITLE "Leadfoot"
REM REPLAYGAIN_TRACK_GAIN -8.45 dB
REM REPLAYGAIN_TRACK_PEAK 0.999969
INDEX 01 00:00:00
FILE "06 For What It Is.flac" WAVE
TRACK 06 AUDIO
TITLE "For What It Is"
REM REPLAYGAIN_TRACK_GAIN -5.62 dB
REM REPLAYGAIN_TRACK_PEAK 0.999969
INDEX 01 00:00:00
FILE "07 Let's Talk About Death.flac" WAVE
TRACK 07 AUDIO
TITLE "Let's Talk About Death"
REM REPLAYGAIN_TRACK_GAIN -8.49 dB
REM REPLAYGAIN_TRACK_PEAK 0.999969
INDEX 01 00:00:00
 
auCDtect Task Manager
-----------------------
DON'T MODIFY THIS FILE
-----------------------
PERFORMER: auCDtect Task Manager, ver. 1.5.1RC6 build 1.5.1.7
Copyright (c) 2008-2010 y-soft. All rights reserved
http://y-soft.org
ANALYZER: auCDtect: CD records authenticity detector, version 0.8.2
Copyright (c) 2004 Oleg Berngardt. All rights reserved.
Copyright (c) 2004 Alexander Djourik. All rights reserved.
FILE: 07 Let's Talk About Death.flac
Size: 67052411 Hash: 9C38D88CB5FE8ABA2247505D42E7ADEB Accuracy: -m0
Conclusion: CDDA 100%
Signature: 985A95BC0B22C185800D1EBB45D8B8CA97B1AF03
FILE: 06 For What It Is.flac
Size: 28156649 Hash: 33C872160C5B5C0D11269899C247CEC5 Accuracy: -m0
Conclusion: CDDA 100%
Signature: E288CC03B75E8EAC023F9C7A3A378008713E5937
FILE: 05 Leadfoot.flac
Size: 41553541 Hash: 3FFC4DAE3A7B01335FC254CF49F266CF Accuracy: -m0
Conclusion: CDDA 100%
Signature: 18CD6D857920B4340E64134B3FA10DDB984C4A87
FILE: 04 Bucket.flac
Size: 87414600 Hash: 02DC9F3B925D46300EDD327D7EF0C9D7 Accuracy: -m0
Conclusion: CDDA 100%
Signature: E88CD1BF325124AEC46339F66AB645E737EB78B8
FILE: 03 Le Saucisse De Fer.flac
Size: 49261585 Hash: 0A0B74F0650AADAC3735352E990C20CD Accuracy: -m0
Conclusion: CDDA 100%
Signature: E6EF8ABC1EBB0BA8BDC155FA1B1A5F70928D7F14
FILE: 02 Catch 22.flac
Size: 106107675 Hash: 0B4491C19E631F7CBE550E174D731078 Accuracy: -m0
Conclusion: CDDA 100%
Signature: E13649E31EF5AA72EFC6217CE3952AF59DB41698
FILE: 01 Tastless.flac
Size: 32973302 Hash: 51847E19DDD73EDAA281128826B52412 Accuracy: -m0
Conclusion: CDDA 100%
Signature: 18A8BD64A0CA1BAE2DF99D1B22C2BA50AC312DA0
... релизы с участием MICHAEL ZERANG на трекере ...
По всем вопросам пишите личное сообщение пользователю M0p94ok.
07:01
161
Нет комментариев. Ваш будет первым!