Вы используете незарегистрированную версию компонента "Вкладки"!

Поиск

(Free Improvisation) [CD] Smonta Tutto (Giancarlo Locatelli, Gino Robair, Alberto Braida) - Piovono Bici - 2011, FLAC (tracks+.cue), lossless

(Free Improvisation) [CD] Smonta Tutto (Giancarlo Locatelli, Gino Robair, Alberto Braida) - Piovono Bici - 2011, FLAC (tracks+.cue), lossless
Треклист:
Smonta Tutto / Piovono Bici
Жанр: Free Improvisation
Носитель: CD
Страна-производитель диска (релиза): US
Год издания: 2011
Издатель (лейбл): Rastascan Records
Номер по каталогу: BRD 066
Аудиокодек: FLAC (*.flac)
Тип рипа: tracks+.cue
Битрейт аудио: lossless
Продолжительность: 61:44
Источник (релизер): cd
Наличие сканов в содержимом раздачи: нет
Треклист:
1 Piovono Bici 18:14
2 A Testa In Giù 25:34
3 The Misterious Race 12:29
4 Bis Azul 5:41
 
Лог создания рипа
Exact Audio Copy V1.0 beta 3 from 29. August 2011
EAC extraction logfile from 10. December 2014, 15:39
Smonta Tutto / Piovono Bici
Used drive : ASUS DRW-24F1ST a Adapter: 0 ID: 0
Read mode : Secure
Utilize accurate stream : Yes
Defeat audio cache : Yes
Make use of C2 pointers : No
Read offset correction : 6
Overread into Lead-In and Lead-Out : No
Fill up missing offset samples with silence : Yes
Delete leading and trailing silent blocks : No
Null samples used in CRC calculations : Yes
Used interface : Native Win32 interface for Win NT & 2000
Gap handling : Appended to previous track
Used output format : User Defined Encoder
Selected bitrate : 320 kBit/s
Quality : High
Add ID3 tag : No
Command line compressor : D:\Programs\Exact Audio Copy\Flac\flac.exe
Additional command line options : -V -8 -T "Genre=%genre%" -T "Artist=%artist%" -T "Title=%title%" -T "Album=%albumtitle%" -T "Date=%year%" -T "Tracknumber=%tracknr%" -T "Comment=%comment%" %source%
TOC of the extracted CD
Track | Start | Length | Start sector | End sector
---------------------------------------------------------
1 | 0:00.00 | 18:11.19 | 0 | 81843
2 | 18:11.19 | 25:29.44 | 81844 | 196562
3 | 43:40.63 | 12:22.60 | 196563 | 252272
4 | 56:03.48 | 5:40.44 | 252273 | 277816
Track 1
Filename D:\EAC\01 Piovono bici.wav
Pre-gap length 0:00:02.00
Peak level 100.0 %
Extraction speed 5.7 X
Track quality 99.9 %
Test CRC 7A9836F4
Copy CRC 7A9836F4
Copy OK
Track 2
Filename D:\EAC\02 A testa in giu.wav
Peak level 100.0 %
Extraction speed 8.0 X
Track quality 100.0 %
Test CRC 884F2900
Copy CRC 884F2900
Copy OK
Track 3
Filename D:\EAC\03 The misterious race.wav
Peak level 100.0 %
Extraction speed 9.1 X
Track quality 100.0 %
Test CRC 5C44974C
Copy CRC 5C44974C
Copy OK
Track 4
Filename D:\EAC\04 Bis azul.wav
Peak level 89.3 %
Extraction speed 9.0 X
Track quality 100.0 %
Test CRC 29B66249
Copy CRC 29B66249
Copy OK
No errors occurred
End of status report
==== Log checksum 8EA5A82449041CB7705682CCBDCB22911C3F9330471454BB83F2881D1549B067 ====
 
Содержание индексной карты (.CUE)
REM GENRE Jazz
REM DATE 2010
REM DISCID 2C0E7804
REM COMMENT "ExactAudioCopy v1.0b3"
PERFORMER "Smonta Tutto"
TITLE "Piovono Bici"
FILE "01 Piovono bici.wav" WAVE
TRACK 01 AUDIO
TITLE "Piovono bici"
PERFORMER "Smonta Tutto"
ISRC USHRZ1000001
FLAGS DCP
INDEX 01 00:00:00
FILE "02 A testa in giu.wav" WAVE
TRACK 02 AUDIO
TITLE "A testa in giu"
PERFORMER "Smonta Tutto"
ISRC USHRZ1000002
FLAGS DCP
INDEX 01 00:00:00
FILE "03 The misterious race.wav" WAVE
TRACK 03 AUDIO
TITLE "The misterious race"
PERFORMER "Smonta Tutto"
ISRC USHRZ1000003
FLAGS DCP
INDEX 01 00:00:00
FILE "04 Bis azul.wav" WAVE
TRACK 04 AUDIO
TITLE "Bis azul"
PERFORMER "Smonta Tutto"
ISRC USHRZ1000003
FLAGS DCP
INDEX 01 00:00:00
Доп. информация: Recorded live on 25 March 2009 as part of the concert series "In Viaggio #9" at Sala Vallaperti, Melzo, Italy.
 
Состав
Clarinet [Clarinets], Bells, Percussion – Giancarlo Locatelli
Drums, Percussion, Performer [Blippoo Box] – Gino Robair
Piano, Piano [Prepared], Percussion – Alberto Braida
По всем вопросам пишите личное сообщение пользователю M0p94ok.
07:01
123
Нет комментариев. Ваш будет первым!