Вы используете незарегистрированную версию компонента "Вкладки"!

Поиск

(Contemporary Jazz, Free Jazz) [CD] Cortex - Live! - 2014, FLAC (tracks+.cue), lossless

(Contemporary Jazz, Free Jazz) [CD] Cortex - Live! - 2014, FLAC (tracks+.cue), lossless
Треклист:
Cortex«Live!»
Жанр: Contemporary Jazz, Free Jazz
Страна-производитель диска: Portugal
Год издания: 2014
Издатель (лейбл): Clean Feed
Номер по каталогу: CF309CD
Страна исполнителя (группы): Norway
Аудиокодек: FLAC (*.flac)
Тип рипа: tracks+.cue
Битрейт аудио: lossless
Продолжительность: 50:26
Источник (релизер): спасибо 6060842
Наличие сканов в содержимом раздачи: нет
Треклист:
1. Opening
2. Cerebrum
3. Endorphin
4. Gray Matter
5. Interlude
6. Hub
7. Closing
 
Лог создания рипа
X Lossless Decoder version 20140504 (147.0)
XLD extraction logfile from 2014-10-09 07:14:57 +0400
Cortex / Live!
Used drive : HL-DT-ST DVDRW GX30N (revision RP09)
Media type : Pressed CD
Ripper mode : XLD Secure Ripper
Disable audio cache : OK for the drive with a cache less than 1375KiB
Make use of C2 pointers : NO
Read offset correction : 6
Max retry count : 10000
Gap status : Analyzed, Appended (except HTOA)
TOC of the extracted CD
Track | Start | Length | Start sector | End sector
---------------------------------------------------------
1 | 00:00:00 | 08:38:32 | 0 | 38881
2 | 08:38:32 | 06:35:59 | 38882 | 68565
3 | 15:14:16 | 07:37:02 | 68566 | 102842
4 | 22:51:18 | 08:37:54 | 102843 | 141671
5 | 31:28:72 | 08:06:31 | 141672 | 178152
6 | 39:35:28 | 06:50:17 | 178153 | 208919
7 | 46:25:45 | 04:01:13 | 208920 | 227007
AccurateRip Summary
Disc not found in AccurateRip DB.
All Tracks
Album gain : -3.92 dB
Peak : 0.985565
Statistics
Read error : 0
Jitter error (maybe fixed) : 0
Retry sector count : 0
Damaged sector count : 0
Track 01
Filename : /Users/Shared/Grabbed/Cortex - 2014 - Live, [MP3 320]/01 - Opening.mp3
/Users/Shared/Grabbed/Cortex - 2014 - Live, [MP3 V0]/01 - Opening.mp3
/Users/Shared/Grabbed/Cortex - 2014 - Live, [FLAC]/01 - Opening.flac
Pre-gap length : 00:02:00
Track gain : -3.93 dB
Peak : 0.947296
CRC32 hash (test run) : 2D4EDDB9
CRC32 hash : 2D4EDDB9
CRC32 hash (skip zero) : 93D69C5B
AccurateRip v1 signature : 9597E9DC
AccurateRip v2 signature : 15782E45
->Track not present in AccurateRip database.
Statistics
Read error : 0
Jitter error (maybe fixed) : 0
Retry sector count : 0
Damaged sector count : 0
Track 02
Filename : /Users/Shared/Grabbed/Cortex - 2014 - Live, [MP3 320]/02 - Cerebrum.mp3
/Users/Shared/Grabbed/Cortex - 2014 - Live, [MP3 V0]/02 - Cerebrum.mp3
/Users/Shared/Grabbed/Cortex - 2014 - Live, [FLAC]/02 - Cerebrum.flac
Track gain : -4.26 dB
Peak : 0.985565
CRC32 hash (test run) : ACD4A576
CRC32 hash : ACD4A576
CRC32 hash (skip zero) : 6E9497B0
AccurateRip v1 signature : 068AD0DC
AccurateRip v2 signature : A84D3999
->Track not present in AccurateRip database.
Statistics
Read error : 0
Jitter error (maybe fixed) : 0
Retry sector count : 0
Damaged sector count : 0
Track 03
Filename : /Users/Shared/Grabbed/Cortex - 2014 - Live, [MP3 320]/03 - Endorphin.mp3
/Users/Shared/Grabbed/Cortex - 2014 - Live, [MP3 V0]/03 - Endorphin.mp3
/Users/Shared/Grabbed/Cortex - 2014 - Live, [FLAC]/03 - Endorphin.flac
Track gain : -3.97 dB
Peak : 0.963135
CRC32 hash (test run) : 38EB8E41
CRC32 hash : 38EB8E41
CRC32 hash (skip zero) : F59AEC9D
AccurateRip v1 signature : 69C3FFEA
AccurateRip v2 signature : 8330FC03
->Track not present in AccurateRip database.
Statistics
Read error : 0
Jitter error (maybe fixed) : 0
Retry sector count : 0
Damaged sector count : 0
Track 04
Filename : /Users/Shared/Grabbed/Cortex - 2014 - Live, [MP3 320]/04 - Gray Matter.mp3
/Users/Shared/Grabbed/Cortex - 2014 - Live, [MP3 V0]/04 - Gray Matter.mp3
/Users/Shared/Grabbed/Cortex - 2014 - Live, [FLAC]/04 - Gray Matter.flac
Track gain : -4.46 dB
Peak : 0.969116
CRC32 hash (test run) : 6702AAAB
CRC32 hash : 6702AAAB
CRC32 hash (skip zero) : 578FBC68
AccurateRip v1 signature : DBE56F60
AccurateRip v2 signature : 68CBEDAD
->Track not present in AccurateRip database.
Statistics
Read error : 0
Jitter error (maybe fixed) : 0
Retry sector count : 0
Damaged sector count : 0
Track 05
Filename : /Users/Shared/Grabbed/Cortex - 2014 - Live, [MP3 320]/05 - Interlude.mp3
/Users/Shared/Grabbed/Cortex - 2014 - Live, [MP3 V0]/05 - Interlude.mp3
/Users/Shared/Grabbed/Cortex - 2014 - Live, [FLAC]/05 - Interlude.flac
Track gain : -2.40 dB
Peak : 0.963043
CRC32 hash (test run) : 5F63F11F
CRC32 hash : 5F63F11F
CRC32 hash (skip zero) : D47A8D77
AccurateRip v1 signature : EECA7994
AccurateRip v2 signature : 800EA2B9
->Track not present in AccurateRip database.
Statistics
Read error : 0
Jitter error (maybe fixed) : 0
Retry sector count : 0
Damaged sector count : 0
Track 06
Filename : /Users/Shared/Grabbed/Cortex - 2014 - Live, [MP3 320]/06 - Hub.mp3
/Users/Shared/Grabbed/Cortex - 2014 - Live, [MP3 V0]/06 - Hub.mp3
/Users/Shared/Grabbed/Cortex - 2014 - Live, [FLAC]/06 - Hub.flac
Track gain : -4.13 dB
Peak : 0.971436
CRC32 hash (test run) : 79CAA3B9
CRC32 hash : 79CAA3B9
CRC32 hash (skip zero) : EEEAD084
AccurateRip v1 signature : 3A662336
AccurateRip v2 signature : C34FA95C
->Track not present in AccurateRip database.
Statistics
Read error : 0
Jitter error (maybe fixed) : 0
Retry sector count : 0
Damaged sector count : 0
Track 07
Filename : /Users/Shared/Grabbed/Cortex - 2014 - Live, [MP3 320]/07 - Closing.mp3
/Users/Shared/Grabbed/Cortex - 2014 - Live, [MP3 V0]/07 - Closing.mp3
/Users/Shared/Grabbed/Cortex - 2014 - Live, [FLAC]/07 - Closing.flac
Track gain : -1.30 dB
Peak : 0.868530
CRC32 hash (test run) : 9CAE0730
CRC32 hash : 9CAE0730
CRC32 hash (skip zero) : 2A54C40A
AccurateRip v1 signature : 0A5DA1C6
AccurateRip v2 signature : 2123B9ED
->Track not present in AccurateRip database.
Statistics
Read error : 0
Jitter error (maybe fixed) : 0
Retry sector count : 0
Damaged sector count : 0
No errors occurred
End of status report
-----BEGIN XLD SIGNATURE-----
AP76u3oDTJHId2Duobr7DsHBk4AbqTbt5PapuVktE2ARLOJ976sk0yaoD1PItVpmYOuTV5i1igusdw33Zk5LNmkl94fdbvsyc_.zWFy
-----END XLD SIGNATURE-----
 
Содержание индексной карты (.CUE)
TITLE "Live!"
PERFORMER "Cortex"
CATALOG 5609063003093
REM GENRE "Free Jazz"
REM DATE "2014"
REM DISCNUMBER 1
REM TOTALDISCS 1
REM DISCID 640BD207
REM REPLAYGAIN_ALBUM_GAIN -3.92 dB
REM REPLAYGAIN_ALBUM_PEAK 0.985565
FILE "01 - Opening.flac" WAVE
TRACK 01 AUDIO
TITLE "Opening"
PERFORMER "Cortex"
ISRC PTNF11409097
REM REPLAYGAIN_TRACK_GAIN -3.93 dB
REM REPLAYGAIN_TRACK_PEAK 0.947296
INDEX 01 00:00:00
FILE "02 - Cerebrum.flac" WAVE
TRACK 02 AUDIO
TITLE "Cerebrum"
PERFORMER "Cortex"
ISRC PTNF11409098
REM REPLAYGAIN_TRACK_GAIN -4.26 dB
REM REPLAYGAIN_TRACK_PEAK 0.985565
INDEX 01 00:00:00
FILE "03 - Endorphin.flac" WAVE
TRACK 03 AUDIO
TITLE "Endorphin"
PERFORMER "Cortex"
ISRC PTNF11409099
REM REPLAYGAIN_TRACK_GAIN -3.97 dB
REM REPLAYGAIN_TRACK_PEAK 0.963135
INDEX 01 00:00:00
FILE "04 - Gray Matter.flac" WAVE
TRACK 04 AUDIO
TITLE "Gray Matter"
PERFORMER "Cortex"
ISRC PTNF11409100
REM REPLAYGAIN_TRACK_GAIN -4.46 dB
REM REPLAYGAIN_TRACK_PEAK 0.969116
INDEX 01 00:00:00
FILE "05 - Interlude.flac" WAVE
TRACK 05 AUDIO
TITLE "Interlude"
PERFORMER "Cortex"
ISRC PTNF11409101
REM REPLAYGAIN_TRACK_GAIN -2.40 dB
REM REPLAYGAIN_TRACK_PEAK 0.963043
INDEX 01 00:00:00
FILE "06 - Hub.flac" WAVE
TRACK 06 AUDIO
TITLE "Hub"
PERFORMER "Cortex"
ISRC PTNF11409102
REM REPLAYGAIN_TRACK_GAIN -4.13 dB
REM REPLAYGAIN_TRACK_PEAK 0.971436
INDEX 01 00:00:00
FILE "07 - Closing.flac" WAVE
TRACK 07 AUDIO
TITLE "Closing"
PERFORMER "Cortex"
ISRC PTNF11409103
REM REPLAYGAIN_TRACK_GAIN -1.30 dB
REM REPLAYGAIN_TRACK_PEAK 0.868530
INDEX 01 00:00:00
 
Об альбоме
Ornette Coleman’s partnership with Don Cherry had in the frontline formed by John Zorn and Dave Douglas in the band Masada a welcomed heritage. Now is Cortex’s turn to continue that lineage concerning the interactive work between an alto alto and baritone (Kristoffer Alberts) and a trumpet (or, in the case of Thomas Johansson, a cornet). With double bassist Ola Høyer and drummer Gard Nilssen, these four Norwegian musicians are notable representatives of a new generation of Scandinavian jazzmen who are refreshing the scene at the same time they’re preserving the identity of a music idiom subjected to many changes in its worldwide evolution, either gaining local colors or mixing with other genres and styles. Cortex plays new jazz with the tools and forms of the old one. More exactly: this quartet practices a creative, exploratory jazz concept with the patine of the former years of free jazz, when the bop matrix was very much in evidence. Like in those times, the music in “Live!” is specially intense and powerful, with an “in-your-face” attitude never giving us a moment of rest. At the end of the album, we’re not tired. It’s the other way around: we get energized and joyful, ready for what’s coming next.
 
Состав

Thomas Johansson - cornet
Kristoffer Alberts - reeds
Ola Høyer - bass
Gard Nilssen - drums
По всем вопросам пишите личное сообщение пользователю M0p94ok.
05:11
154
Нет комментариев. Ваш будет первым!