Вы используете незарегистрированную версию компонента "Вкладки"!

Поиск

(Avant-Garde Jazz / Free Improvisation) [CD] Joe McPhee, Paal Nilssen-Love - Red Sky - 2013, FLAC (tracks+.cue), lossless

(Avant-Garde Jazz / Free Improvisation) [CD] Joe McPhee, Paal Nilssen-Love - Red Sky - 2013, FLAC (tracks+.cue), lossless
Треклист:
Joe McPhee, Paal Nilssen-Love - Red Sky
Жанр: Avant-Garde Jazz / Free Improvisation
Носитель: CD
Страна-производитель диска: Norway
Год издания: 2013
Издатель (лейбл): PNL Records (private label of Paal Nilssen-Love)
Номер по каталогу: PNL016
Аудиокодек: FLAC (*.flac)
Тип рипа: tracks+.cue
Битрейт аудио: lossless
Продолжительность: 00:33:12
Источник (релизер): what.cd / спасибо 6060842
Наличие сканов в содержимом раздачи: да (front & back)
Треклист:
1. Red Sky (Red Sky at Night, Sailor's Delight, Red Sky in the Morning, Sailors Warning) (11:23)
2. Till (Remembering Emmett Till) (05:45)
3. Peach Melba (05:03)
4. Iron Man Returns (05:16)
5. Come Sunday (Duke Ellington) (05:45)
Доп. информация:
Musicians:
Joe McPhee - tenor saxophone, pocket trumpet
Paal Nilssen-Love - drums & percussion
Recorded live in concert at Energimolla, Kongsberg Jazzfestival, July 3rd 2008
Joe McPhee, Paal Nilssen-Love - Red Sky squidco.com
Joe McPhee, Paal Nilssen-Love - Red Sky discogs.com
Joe McPhee Official Site
Joe McPhee from Wikipedia, the free encyclopedia
Paal Nilssen-Love Official Site
Paal Nilssen-Love from Wikipedia, the free encyclopedia
 
... photo ...
... back ...
 
Лог создания рипа
X Lossless Decoder version 20140504 (147.0)
XLD extraction logfile from 2014-10-08 22:45:53 +0400
Joe McPhee, Paal Nilssen-Love / Red Sky
Used drive : HL-DT-ST DVDRW GX30N (revision RP09)
Media type : Pressed CD
Ripper mode : XLD Secure Ripper
Disable audio cache : OK for the drive with a cache less than 1375KiB
Make use of C2 pointers : NO
Read offset correction : 6
Max retry count : 10000
Gap status : Analyzed, Appended (except HTOA)
TOC of the extracted CD
Track | Start | Length | Start sector | End sector
---------------------------------------------------------
1 | 00:00:38 | 11:22:09 | 38 | 51196
2 | 11:22:47 | 05:45:24 | 51197 | 77095
3 | 17:07:71 | 05:03:33 | 77096 | 99853
4 | 22:11:29 | 05:15:52 | 99854 | 123530
5 | 27:27:06 | 05:46:09 | 123531 | 149489
AccurateRip Summary
Disc not found in AccurateRip DB.
All Tracks
Album gain : -2.99 dB
Peak : 0.912415
Statistics
Read error : 0
Jitter error (maybe fixed) : 0
Retry sector count : 0
Damaged sector count : 0
Track 01
Filename : /Users/Shared/Grabbed/Joe McPhee, Paal Nilssen-Love - 2013 - Red Sky [MP3 320]/01 - Red Sky (Red Sky at Night, Sailor's Delight, Red Sky in the Morning, Sailors Warning).mp3
/Users/Shared/Grabbed/Joe McPhee, Paal Nilssen-Love - 2013 - Red Sky [MP3 V0]/01 - Red Sky (Red Sky at Night, Sailor's Delight, Red Sky in the Morning, Sailors Warning).mp3
/Users/Shared/Grabbed/Joe McPhee, Paal Nilssen-Love - 2013 - Red Sky [FLAC]/01 - Red Sky (Red Sky at Night, Sailor's Delight, Red Sky in the Morning, Sailors Warning).flac
Pre-gap length : 00:02:38
Track gain : -2.99 dB
Peak : 0.912415
CRC32 hash (test run) : 2BE5C023
CRC32 hash : 2BE5C023
CRC32 hash (skip zero) : FBA815EA
AccurateRip v1 signature : B4E94716
AccurateRip v2 signature : 7E2830F9
->Track not present in AccurateRip database.
Statistics
Read error : 0
Jitter error (maybe fixed) : 0
Retry sector count : 0
Damaged sector count : 0
Track 02
Filename : /Users/Shared/Grabbed/Joe McPhee, Paal Nilssen-Love - 2013 - Red Sky [MP3 320]/02 - Till (Remembering Emmett Till).mp3
/Users/Shared/Grabbed/Joe McPhee, Paal Nilssen-Love - 2013 - Red Sky [MP3 V0]/02 - Till (Remembering Emmett Till).mp3
/Users/Shared/Grabbed/Joe McPhee, Paal Nilssen-Love - 2013 - Red Sky [FLAC]/02 - Till (Remembering Emmett Till).flac
Track gain : 1.45 dB
Peak : 0.912292
CRC32 hash (test run) : F6F3F7C6
CRC32 hash : F6F3F7C6
CRC32 hash (skip zero) : 59B05F5C
AccurateRip v1 signature : CBBD0762
AccurateRip v2 signature : 006408AF
->Track not present in AccurateRip database.
Statistics
Read error : 0
Jitter error (maybe fixed) : 0
Retry sector count : 0
Damaged sector count : 0
Track 03
Filename : /Users/Shared/Grabbed/Joe McPhee, Paal Nilssen-Love - 2013 - Red Sky [MP3 320]/03 - Peach Melba.mp3
/Users/Shared/Grabbed/Joe McPhee, Paal Nilssen-Love - 2013 - Red Sky [MP3 V0]/03 - Peach Melba.mp3
/Users/Shared/Grabbed/Joe McPhee, Paal Nilssen-Love - 2013 - Red Sky [FLAC]/03 - Peach Melba.flac
Track gain : -3.04 dB
Peak : 0.912384
CRC32 hash (test run) : 17C39778
CRC32 hash : 17C39778
CRC32 hash (skip zero) : 1F5EA27A
AccurateRip v1 signature : E3191E71
AccurateRip v2 signature : 32E92E89
->Track not present in AccurateRip database.
Statistics
Read error : 0
Jitter error (maybe fixed) : 0
Retry sector count : 0
Damaged sector count : 0
Track 04
Filename : /Users/Shared/Grabbed/Joe McPhee, Paal Nilssen-Love - 2013 - Red Sky [MP3 320]/04 - Iron Man Returns.mp3
/Users/Shared/Grabbed/Joe McPhee, Paal Nilssen-Love - 2013 - Red Sky [MP3 V0]/04 - Iron Man Returns.mp3
/Users/Shared/Grabbed/Joe McPhee, Paal Nilssen-Love - 2013 - Red Sky [FLAC]/04 - Iron Man Returns.flac
Track gain : -5.42 dB
Peak : 0.912354
CRC32 hash (test run) : F161E518
CRC32 hash : F161E518
CRC32 hash (skip zero) : 40F3178C
AccurateRip v1 signature : 391A5035
AccurateRip v2 signature : E2A9F13F
->Track not present in AccurateRip database.
Statistics
Read error : 0
Jitter error (maybe fixed) : 0
Retry sector count : 0
Damaged sector count : 0
Track 05
Filename : /Users/Shared/Grabbed/Joe McPhee, Paal Nilssen-Love - 2013 - Red Sky [MP3 320]/05 - Come Sunday (Duke Ellington).mp3
/Users/Shared/Grabbed/Joe McPhee, Paal Nilssen-Love - 2013 - Red Sky [MP3 V0]/05 - Come Sunday (Duke Ellington).mp3
/Users/Shared/Grabbed/Joe McPhee, Paal Nilssen-Love - 2013 - Red Sky [FLAC]/05 - Come Sunday (Duke Ellington).flac
Track gain : 3.89 dB
Peak : 0.912109
CRC32 hash (test run) : 84A1522E
CRC32 hash : 84A1522E
CRC32 hash (skip zero) : 9175D0D2
AccurateRip v1 signature : 63E6AB2C
AccurateRip v2 signature : CA93D296
->Track not present in AccurateRip database.
Statistics
Read error : 0
Jitter error (maybe fixed) : 0
Retry sector count : 0
Damaged sector count : 0
No errors occurred
End of status report
-----BEGIN XLD SIGNATURE-----
YJkMrwyhdel7tIMuYgqClcw8L9_2w500CVuFUmtpwh8c6Zs8d_WTGoigdkTy34n8ZcJL5OC.WExFczm0vAruhHHrQ7AkSDW4VeD0j.m
-----END XLD SIGNATURE-----
 
Содержание индексной карты (.CUE)
TITLE "Red Sky"
PERFORMER "Joe McPhee, Paal Nilssen-Love"
REM GENRE "Free Jazz"
REM DATE "2013"
REM DISCID 3E07C905
REM REPLAYGAIN_ALBUM_GAIN -2.99 dB
REM REPLAYGAIN_ALBUM_PEAK 0.912415
FILE "01 - Red Sky (Red Sky at Night, Sailor's Delight, Red Sky in the Morning, Sailors Warning).flac" WAVE
TRACK 01 AUDIO
TITLE "Red Sky (Red Sky at Night, Sailor's Delight, Red Sky in the Morning, Sailors Warning)"
PERFORMER "Joe McPhee, Paal Nilssen-Love"
REM REPLAYGAIN_TRACK_GAIN -2.99 dB
REM REPLAYGAIN_TRACK_PEAK 0.912415
PREGAP 00:00:38
INDEX 01 00:00:00
FILE "02 - Till (Remembering Emmett Till).flac" WAVE
TRACK 02 AUDIO
TITLE "Till (Remembering Emmett Till)"
PERFORMER "Joe McPhee, Paal Nilssen-Love"
REM REPLAYGAIN_TRACK_GAIN 1.45 dB
REM REPLAYGAIN_TRACK_PEAK 0.912292
INDEX 01 00:00:00
FILE "03 - Peach Melba.flac" WAVE
TRACK 03 AUDIO
TITLE "Peach Melba"
PERFORMER "Joe McPhee, Paal Nilssen-Love"
REM REPLAYGAIN_TRACK_GAIN -3.04 dB
REM REPLAYGAIN_TRACK_PEAK 0.912384
INDEX 01 00:00:00
FILE "04 - Iron Man Returns.flac" WAVE
TRACK 04 AUDIO
TITLE "Iron Man Returns"
PERFORMER "Joe McPhee, Paal Nilssen-Love"
REM REPLAYGAIN_TRACK_GAIN -5.42 dB
REM REPLAYGAIN_TRACK_PEAK 0.912354
INDEX 01 00:00:00
FILE "05 - Come Sunday (Duke Ellington).flac" WAVE
TRACK 05 AUDIO
TITLE "Come Sunday (Duke Ellington)"
PERFORMER "Joe McPhee, Paal Nilssen-Love"
REM REPLAYGAIN_TRACK_GAIN 3.89 dB
REM REPLAYGAIN_TRACK_PEAK 0.912109
INDEX 01 00:00:00
 
auCDtect Task Manager
-----------------------
DON'T MODIFY THIS FILE
-----------------------
PERFORMER: auCDtect Task Manager, ver. 1.5.1RC6 build 1.5.1.7
Copyright (c) 2008-2010 y-soft. All rights reserved
http://y-soft.org
ANALYZER: auCDtect: CD records authenticity detector, version 0.8.2
Copyright (c) 2004 Oleg Berngardt. All rights reserved.
Copyright (c) 2004 Alexander Djourik. All rights reserved.
FILE: 05 - Come Sunday (Duke Ellington).flac
Size: 30530756 Hash: 34DFEDCED01FEEF289A2C6C0ED0B3602 Accuracy: -m0
Conclusion: CDDA 100%
Signature: 5070C8C773860949B1A1CFD12AF41BFFFA64A111
FILE: 04 - Iron Man Returns.flac
Size: 33717805 Hash: B732808FD19F73D9AE514D028C85D2CC Accuracy: -m0
Conclusion: CDDA 100%
Signature: D8969E40CC2AF1526AA5010C8CB801661E110B7B
FILE: 03 - Peach Melba.flac
Size: 31256917 Hash: F7D924E9F796EC14162859B919726CFE Accuracy: -m0
Conclusion: CDDA 100%
Signature: B30609581EE2AEBE2278D5CD764FEEDEFA9AD505
FILE: 02 - Till (Remembering Emmett Till).flac
Size: 28030560 Hash: 8C16FEE86703B579AF46E1C247CF18AB Accuracy: -m0
Conclusion: CDDA 100%
Signature: 346CD8F647B1BEC62455107F2904018BA1D6193E
FILE: 01 - Red Sky (Red Sky at Night, Sailor's Delight, Red Sky in the Morning, Sailors Warning).flac
Size: 76296752 Hash: E33AC92F84AA82FC0E92FFF7CAD1CC23 Accuracy: -m0
Conclusion: CDDA 100%
Signature: 0BA9A94B6D01A91ADBB3BDC06BF16234DDD406F5
... релизы с участием PAAL NILSSEN-LOVE на трекере ...
По всем вопросам пишите личное сообщение пользователю M0p94ok.
05:12
160
Нет комментариев. Ваш будет первым!