Вы используете незарегистрированную версию компонента "Вкладки"!

Поиск

(Avant-Garde Jazz, Free Improvisation, Discus) [CD] Shkrang (Mick Beck, Dave Tucker, Paul Hession) - Some Thoughts About Shkrang! - 2006, FLAC (tracks+.cue), lossless

(Avant-Garde Jazz, Free Improvisation, Discus) [CD] Shkrang (Mick Beck, Dave Tucker, Paul Hession) - Some Thoughts About Shkrang! - 2006, FLAC (tracks+.cue), lossless
Треклист:
Shkrang / Some Thoughts About Shkrang!
Жанр: Avant-Garde Jazz, Free Improvisation, Discus
Носитель: CD
Страна-производитель диска: UK
Год издания: 2006
Издатель (лейбл): Discus Records
Номер по каталогу: Discus 25CD
Страна исполнителя (группы): UK
Аудиокодек: FLAC (*.flac)
Тип рипа: tracks+.cue
Битрейт аудио: lossless
Продолжительность: 46:23
Источник (релизер): свой фирменный диск
Наличие сканов в содержимом раздачи:
Треклист:
1. Archie Shepp 4:19
2. Ballroom Dancing 5:38
3. Washing 6:18
4. Opera 20:18
5. Seething 5:14
6. Study In C Minor 4:23
 
Лог создания рипа
Exact Audio Copy V1.0 beta 3 from 29. August 2011
EAC extraction logfile from 27. August 2014, 22:45
Shkrang / Some Thoughts About Shkrang!
Used drive : PIONEER DVD-RW DVR-115D Adapter: 0 ID: 0
Read mode : Secure
Utilize accurate stream : Yes
Defeat audio cache : Yes
Make use of C2 pointers : No
Read offset correction : 48
Overread into Lead-In and Lead-Out : No
Fill up missing offset samples with silence : Yes
Delete leading and trailing silent blocks : No
Null samples used in CRC calculations : Yes
Used interface : Installed external ASPI interface
Gap handling : Appended to previous track
Used output format : User Defined Encoder
Selected bitrate : 1024 kBit/s
Quality : High
Add ID3 tag : No
Command line compressor : C:\Program Files\Exact Audio Copy\Flac\flac.exe
Additional command line options : -6 -V -T "ARTIST=%artist%" -T "TITLE=%title%" -T "ALBUM=%albumtitle%" -T "DATE=%year%" -T "TRACKNUMBER=%tracknr%" -T "GENRE=%genre%" -T "COMMENT=%comment%" -T "BAND=%albuminterpret%" -T "COMPOSER=%composer%" %haslyrics%--tag-from-file=LYRICS="%lyricsfile%"%haslyrics% -T "DISCNUMBER=%cdnumber%" -T "TOTALDISCS=%totalcds%" -T "TOTALTRACKS=%numtracks%" %hascover%--picture="%coverfile%"%hascover% %source% -o %dest%
TOC of the extracted CD
Track | Start | Length | Start sector | End sector
---------------------------------------------------------
1 | 0:00.00 | 4:21.29 | 0 | 19603
2 | 4:21.29 | 5:40.43 | 19604 | 45146
3 | 10:01.72 | 6:20.11 | 45147 | 73657
4 | 16:22.08 | 20:20.19 | 73658 | 165176
5 | 36:42.27 | 5:16.67 | 165177 | 188943
6 | 41:59.19 | 4:23.41 | 188944 | 208709
Track 1
Filename D:\zzz\01 - Archie Shepp.wav
Pre-gap length 0:00:02.00
Peak level 95.3 %
Extraction speed 4.3 X
Track quality 100.0 %
Test CRC 846977AD
Copy CRC 846977AD
Track not present in AccurateRip database
Copy OK
Track 2
Filename D:\zzz\02 - Ballroom Dancing.wav
Pre-gap length 0:00:01.57
Peak level 94.9 %
Extraction speed 5.0 X
Track quality 100.0 %
Test CRC 748BFC8D
Copy CRC 748BFC8D
Track not present in AccurateRip database
Copy OK
Track 3
Filename D:\zzz\03 - Washing.wav
Pre-gap length 0:00:01.57
Peak level 96.9 %
Extraction speed 5.2 X
Track quality 99.9 %
Test CRC 781E811A
Copy CRC 781E811A
Track not present in AccurateRip database
Copy OK
Track 4
Filename D:\zzz\04 - Opera.wav
Pre-gap length 0:00:01.57
Peak level 96.4 %
Extraction speed 7.0 X
Track quality 100.0 %
Test CRC 38476F23
Copy CRC 38476F23
Track not present in AccurateRip database
Copy OK
Track 5
Filename D:\zzz\05 - Seething.wav
Pre-gap length 0:00:01.57
Peak level 96.1 %
Extraction speed 7.3 X
Track quality 100.0 %
Test CRC E7798E25
Copy CRC E7798E25
Track not present in AccurateRip database
Copy OK
Track 6
Filename D:\zzz\06 - Study In C Minor.wav
Pre-gap length 0:00:01.57
Peak level 94.2 %
Extraction speed 7.4 X
Track quality 100.0 %
Test CRC 9B672020
Copy CRC 9B672020
Track not present in AccurateRip database
Copy OK
None of the tracks are present in the AccurateRip database
No errors occurred
End of status report
==== Log checksum 7FEAF12F9A0C6B5A03DD87E8C92F153BF27138D4C5CC1B5E9E80A2AB2420702D ====
 
Содержание индексной карты (.CUE)
REM GENRE "Free Jazz"
REM DATE 2006
REM DISCID 3D0ADE06
REM COMMENT "ExactAudioCopy v1.0b3"
PERFORMER "Shkrang"
TITLE "Some Thoughts About Shkrang!"
FILE "01 - Archie Shepp.wav" WAVE
TRACK 01 AUDIO
TITLE "Archie Shepp"
PERFORMER "Shkrang"
FLAGS DCP
INDEX 01 00:00:00
TRACK 02 AUDIO
TITLE "Ballroom Dancing"
PERFORMER "Shkrang"
FLAGS DCP
INDEX 00 04:19:47
FILE "02 - Ballroom Dancing.wav" WAVE
INDEX 01 00:00:00
TRACK 03 AUDIO
TITLE "Washing"
PERFORMER "Shkrang"
FLAGS DCP
INDEX 00 05:38:61
FILE "03 - Washing.wav" WAVE
INDEX 01 00:00:00
TRACK 04 AUDIO
TITLE "Opera"
PERFORMER "Shkrang"
FLAGS DCP
INDEX 00 06:18:29
FILE "04 - Opera.wav" WAVE
INDEX 01 00:00:00
TRACK 05 AUDIO
TITLE "Seething"
PERFORMER "Shkrang"
FLAGS DCP
INDEX 00 20:18:37
FILE "05 - Seething.wav" WAVE
INDEX 01 00:00:00
TRACK 06 AUDIO
TITLE "Study In C Minor"
PERFORMER "Shkrang"
FLAGS DCP
INDEX 00 05:15:10
FILE "06 - Study In C Minor.wav" WAVE
INDEX 01 00:00:00
 
Лог проверки качества
d:\>d:\aucdtect -d/-m0 d:\zzz\*.wav
auCDtect: CD records authenticity detector, version 0.8.2
Copyright (c) 2004 Oleg Berngardt. All rights reserved.
Copyright (c) 2004 Alexander Djourik. All rights reserved.
------------------------------------------------------------
Processing file: [01. Archie Shepp.wav]
------------------------------------------------------------
This track looks like CDDA with probability 99%
------------------------------------------------------------
Processing file: [02. Ballroom Dancing.wav]
------------------------------------------------------------
This track looks like CDDA with probability 99%
------------------------------------------------------------
Processing file: [03. Washing.wav]
------------------------------------------------------------
This track looks like CDDA with probability 100%
------------------------------------------------------------
Processing file: [04. Opera.wav]
------------------------------------------------------------
This track looks like CDDA with probability 100%
------------------------------------------------------------
Processing file: [05. Seething.wav]
------------------------------------------------------------
This track looks like CDDA with probability 99%
------------------------------------------------------------
Processing file: [06. Study In C Minor.wav]
------------------------------------------------------------
This track looks like CDDA with probability 99%
------------------------------------------------------------
Final Conclusion:
------------------------------------------------------------
These tracks looks like CDDA with probability 100%
Доп. информация:
 
Album Info & Reviews
The Beck/Hession duo is legendary for focus and power. Add Dave Tucker's spikey guitar/electronics and there's something striking - could be hammer blows on anvils, or industrial strife. It's unusual and intense. The best of abstract free and wreckless driving.
Culled from concerts given in Spain and England in 2003, embellished by Dave Tucker in studio, the soundscape veers between free and rock, car crashes and dog fights. The Spanish gigs were at a festival in Leon, and 'Musica Libre' in Madrid. Sheffield and Leeds performances provide the English inputs.
Recordings by Dave Tucker, studio production by Dave Tucker and Ian Stead.
Music by Beck / Hession / Tucker ("Shkrang!")
"There isn't an improvising duo in Britain at the moment that can match reed player Beck and drummer Hession for sheer energy and concentration. The addition of Tucker on electric guitar and laptop to the familiar reeds and drums situation in no way dilutes or depletes those characteristics. From the opening onwards, and particularly on the long, roiling "Opera" (which has a great mad scene), they work absolutely as a unit. Tucker has some low string stuffand occasional electronic effects that suggest there's a bass in there somewhere as well, giving some of the pieces an unexpected hint of tonality, which is all to the good. One has to look back as far as early Amalgam to finf free jazz / improv ascompellingly rooted and adventurous as this." - Brian Morton, WIRE
"Surprises abound with each new release from this experimental British ecord label. Here, ace tenor saxophonist Mick Beck incorporates an amplified bassoon into an outing that defies even the most oddball stereotypes. I'd call it something like psycho free-jazz aligned with icrotonal minimalism and garrulous space-rock. Guitarist Dave Tucker adds grunge-rock noise and eerie sounds from his laptop and the band engages in angst, discontent and maniacally centered chaos. But all in good fun, mind you.
Occasionally this free-form trio surfaces as a twisted heavy metal avant garde trio, aided by Paul Hession’s blitzing, asymmetrical rhythms. On “Washing,” Beck’s howling sax lines are framed with Tucker’s wacky EFX treatments.
The trio moves about with a neurotic disposition, and all hell breaks oose during several passages. Other spots feature Beck’s strange bassoon bellowing along with the drummer’s off-kilter interludes, spiced up with whimsical intimations. Then on the lengthy “Opera,” the trio works within a supernatural wall-of-sound, aided by Hession’s slashing and crashing drum patterns. In essence, the musicians accomplish quite a bit as they morph various genres into an uncanny search and destroy mission. Not for the faint of heart, but an inspiring endeavor where multiplicity and ingenuity attain a triumphant coexistence. A top avant garde pick for 2006." - Glenn Astarita, All About Jazz
 
Состав
Mick Beck: tenor sax, amplified bassoon, voice and calls
Dave Tucker: electric guitar, laptop
Paul Hession: drumset
По всем вопросам пишите личное сообщение пользователю M0p94ok.
05:10
116
Нет комментариев. Ваш будет первым!