Поиск

(Free Jazz, Avant-Garde Jazz, Discus) [CD] Grew Trio (Stephen Grew, Mick Beck, Phillip Marks) - It's Morning - 2005, FLAC (tracks+.cue), lossless

(Free Jazz, Avant-Garde Jazz, Discus) [CD] Grew Trio (Stephen Grew, Mick Beck, Phillip Marks) - It's Morning - 2005, FLAC (tracks+.cue), lossless
Треклист:
Grew Trio / It's Morning
Жанр: Free Jazz, Avant-Garde Jazz, Discus
Носитель: CD
Страна-производитель диска: UK
Год издания: 2005
Издатель (лейбл): Discus Records
Номер по каталогу: Discus 22CD
Страна исполнителя (группы): UK
Аудиокодек: FLAC (*.flac)
Тип рипа: tracks+.cue
Битрейт аудио: lossless
Продолжительность: 44:30
Источник (релизер): свой фирменный диск
Наличие сканов в содержимом раздачи:
Треклист:
1. It's Morning 7:26
2. Good Form And A Bit Of Ankst 6:41
3. Let's Go 3:06
4. To The Woods 5:00
5. Getting Hungry 3:48
6. For Stalactites 6:12
7. Midnight Revels 8:47
8. Nightfall 3:12
 
Лог создания рипа
Exact Audio Copy V1.0 beta 3 from 29. August 2011
EAC extraction logfile from 26. August 2014, 19:39
Grew Trio / It's Morning
Used drive : PIONEER DVD-RW DVR-115D Adapter: 0 ID: 0
Read mode : Secure
Utilize accurate stream : Yes
Defeat audio cache : Yes
Make use of C2 pointers : No
Read offset correction : 48
Overread into Lead-In and Lead-Out : No
Fill up missing offset samples with silence : Yes
Delete leading and trailing silent blocks : No
Null samples used in CRC calculations : Yes
Used interface : Installed external ASPI interface
Gap handling : Appended to previous track
Used output format : User Defined Encoder
Selected bitrate : 1024 kBit/s
Quality : High
Add ID3 tag : No
Command line compressor : C:\Program Files\Exact Audio Copy\Flac\flac.exe
Additional command line options : -6 -V -T "ARTIST=%artist%" -T "TITLE=%title%" -T "ALBUM=%albumtitle%" -T "DATE=%year%" -T "TRACKNUMBER=%tracknr%" -T "GENRE=%genre%" -T "COMMENT=%comment%" -T "BAND=%albuminterpret%" -T "COMPOSER=%composer%" %haslyrics%--tag-from-file=LYRICS="%lyricsfile%"%haslyrics% -T "DISCNUMBER=%cdnumber%" -T "TOTALDISCS=%totalcds%" -T "TOTALTRACKS=%numtracks%" %hascover%--picture="%coverfile%"%hascover% %source% -o %dest%
TOC of the extracted CD
Track | Start | Length | Start sector | End sector
---------------------------------------------------------
1 | 0:00.00 | 7:30.67 | 0 | 33816
2 | 7:30.67 | 6:41.58 | 33817 | 63949
3 | 14:12.50 | 3:07.20 | 63950 | 77994
4 | 17:19.70 | 5:05.22 | 77995 | 100891
5 | 22:25.17 | 3:48.50 | 100892 | 118041
6 | 26:13.67 | 6:12.48 | 118042 | 145989
7 | 32:26.40 | 8:48.43 | 145990 | 185632
8 | 41:15.08 | 3:15.19 | 185633 | 200276
Track 1
Filename D:\zzz\01 - It's Morning.wav
Pre-gap length 0:00:02.00
Peak level 98.8 %
Extraction speed 4.7 X
Track quality 100.0 %
Test CRC 384EC210
Copy CRC 384EC210
Track not present in AccurateRip database
Copy OK
Track 2
Filename D:\zzz\02 - Good Form And A Bit Of Ankst.wav
Peak level 98.8 %
Extraction speed 5.4 X
Track quality 100.0 %
Test CRC 760FAD64
Copy CRC 760FAD64
Track not present in AccurateRip database
Copy OK
Track 3
Filename D:\zzz\03 - Let's Go.wav
Peak level 98.8 %
Extraction speed 5.3 X
Track quality 100.0 %
Test CRC FC0D7E8B
Copy CRC FC0D7E8B
Track not present in AccurateRip database
Copy OK
Track 4
Filename D:\zzz\04 - To The Woods.wav
Peak level 98.8 %
Extraction speed 6.1 X
Track quality 100.0 %
Test CRC 33745C86
Copy CRC 33745C86
Track not present in AccurateRip database
Copy OK
Track 5
Filename D:\zzz\05 - Getting Hungry.wav
Peak level 98.8 %
Extraction speed 6.2 X
Track quality 100.0 %
Test CRC 7F400560
Copy CRC 7F400560
Track not present in AccurateRip database
Copy OK
Track 6
Filename D:\zzz\06 - To Stalactites.wav
Peak level 98.8 %
Extraction speed 6.9 X
Track quality 100.0 %
Test CRC F4198CB1
Copy CRC F4198CB1
Track not present in AccurateRip database
Copy OK
Track 7
Filename D:\zzz\07 - Midnight Revels.wav
Peak level 98.8 %
Extraction speed 7.5 X
Track quality 100.0 %
Test CRC A07B052E
Copy CRC A07B052E
Track not present in AccurateRip database
Copy OK
Track 8
Filename D:\zzz\08 - Nightfall.wav
Peak level 98.8 %
Extraction speed 7.0 X
Track quality 100.0 %
Test CRC 0685B09B
Copy CRC 0685B09B
Track not present in AccurateRip database
Copy OK
None of the tracks are present in the AccurateRip database
No errors occurred
End of status report
==== Log checksum 848DCB6E16F4FB0660CC111CF791B07A965009965AB57A347A6EF305888C291B ====
 
Содержание индексной карты (.CUE)
REM GENRE "Free Improvisation"
REM DATE 2005
REM DISCID 6F0A6E08
REM COMMENT "ExactAudioCopy v1.0b3"
PERFORMER "Grew Trio"
TITLE "It's Morning"
FILE "01 - It's Morning.wav" WAVE
TRACK 01 AUDIO
TITLE "It's Morning"
PERFORMER "Grew Trio"
FLAGS DCP
INDEX 01 00:00:00
FILE "02 - Good Form And A Bit Of Ankst.wav" WAVE
TRACK 02 AUDIO
TITLE "Good Form And A Bit Of Ankst"
PERFORMER "Grew Trio"
FLAGS DCP
INDEX 01 00:00:00
FILE "03 - Let's Go.wav" WAVE
TRACK 03 AUDIO
TITLE "Let's Go"
PERFORMER "Grew Trio"
FLAGS DCP
INDEX 01 00:00:00
FILE "04 - To The Woods.wav" WAVE
TRACK 04 AUDIO
TITLE "To The Woods"
PERFORMER "Grew Trio"
FLAGS DCP
INDEX 01 00:00:00
FILE "05 - Getting Hungry.wav" WAVE
TRACK 05 AUDIO
TITLE "Getting Hungry"
PERFORMER "Grew Trio"
FLAGS DCP
INDEX 01 00:00:00
FILE "06 - To Stalactites.wav" WAVE
TRACK 06 AUDIO
TITLE "To Stalactites"
PERFORMER "Grew Trio"
FLAGS DCP
INDEX 01 00:00:00
FILE "07 - Midnight Revels.wav" WAVE
TRACK 07 AUDIO
TITLE "Midnight Revels"
PERFORMER "Grew Trio"
FLAGS DCP
INDEX 01 00:00:00
FILE "08 - Nightfall.wav" WAVE
TRACK 08 AUDIO
TITLE "Nightfall"
PERFORMER "Grew Trio"
FLAGS DCP
INDEX 01 00:00:00
 
Лог проверки качества
d:\>d:\aucdtect -d/-m0 d:\zzz\*.wav
auCDtect: CD records authenticity detector, version 0.8.2
Copyright (c) 2004 Oleg Berngardt. All rights reserved.
Copyright (c) 2004 Alexander Djourik. All rights reserved.
------------------------------------------------------------
Processing file: [01. It's Morning.wav]
------------------------------------------------------------
This track looks like CDDA with probability 100%
------------------------------------------------------------
Processing file: [02. Good Form And A Bit Of Ankst.wav]
------------------------------------------------------------
This track looks like CDDA with probability 100%
------------------------------------------------------------
Processing file: [03. Let's Go.wav]
------------------------------------------------------------
This track looks like CDDA with probability 100%
------------------------------------------------------------
Processing file: [04. To The Woods.wav]
------------------------------------------------------------
This track looks like CDDA with probability 100%
------------------------------------------------------------
Processing file: [05. Getting Hungry.wav]
------------------------------------------------------------
This track looks like CDDA with probability 100%
------------------------------------------------------------
Processing file: [06. To Stalactites.wav]
------------------------------------------------------------
This track looks like CDDA with probability 100%
------------------------------------------------------------
Processing file: [07. Midnight Revels.wav]
------------------------------------------------------------
This track looks like CDDA with probability 100%
------------------------------------------------------------
Processing file: [08. Nightfall.wav]
------------------------------------------------------------
This track looks like CDDA with probability 100%
------------------------------------------------------------
Final Conclusion:
------------------------------------------------------------
These tracks looks like CDDA with probability 100%
Доп. информация:
 
Album Info & Reviews
Music by Grew, Marks, Beck
Produced by Grew Trio and Richard Scott
Recorded, mixed and mastered by Richard Scott
Winter 2005. Drab dark days. Grew Trio in a studio with an expert and sympathetic recording engineer Richard Scott, intent on doing something different. An evening to set up, a day's work to build up, then the first feel of spring growth and the urge to reproduce. It's morning, time to make things be counted. Fertility, spark, energy, nurturing. Creativity caught: five years' development of the group with its present members. Eight pieces blending persistence and diversity.
Opening with a title track, a compelling tympanic piano-percussion duo, track 2 has almost a theme and variations form with a neurotic bassoon. Muscular grunting as part of track 3 possibly suggests the wish to be off to the woods (track 4 which is contiguous) where some very atmospheric things happen. Tracks 5 and 6 also joined (bassoon percussion duo which has a hungry feel, linking to interesting cave and little beasties textures. Track 7 is a well sectioned and intense free jazz revel, and track 8 ushers out the session in a lighter playful mood.. A fascinating tale all round.
"The give and take is palpable but, frisky byplay notwithstanding, they always seem to hold something in reserve, resulting in sturdy, cohesive structures" - Wire
"When the definitive history of British improv is written, it'll have to include a chapter on the Sheffield scene, Discus records and the activities of musicians such as the Grew Trio. This release carries the hallmarks we've come to expect of that stable: an uncompromising and intense approach to non-idiomatic free music, delivered with an irrepressibly mischievous sense of humour. Marks' percussion sounds at times like someone empying the contents of a pencil case over a drum kit, at others like a disconsolate husband rummaging in his garden shed; Beck's bassoon runs an ornithological gamut from menacing goose to keening gull, from snoring albatross to over-excited penguin; while Gre seems just as happy tinkering in the innards of the piano as hammering out dense thickets of chords. Only on "Midnight Revels" do they come close to producing anything classifiable - scorching free-jazz pushed along by Beck's post Ayler tenor sax. Ridiculously entertaining" - Daniel Spicer, Jazzwise
"Grew’s percussive approach to the piano is at the heart of the project. The opening track starts with a relentless piano piece that sounds like it has been commandeered by a small but very enthusiastic child before bass notes create a rolling thunder of sound. Beck’s amazing dexterity on the unwieldy bassoon takes over next. He’s also at the heart of Getting Hungry, creating, along with percussion, the sound of a very very empty stomach. There’s something prehistoric and sludgy on the sparse For Stalactites. Midnight Revels is the closest to jazz with huge percussive rolls of piano and fireworks all round from Beck’s sax and Marks’ percussion. The album closes with Nightfall, a very quiet piece until somebody manages to locate the lift." - Martin Lilleker, Sandman
 
Состав
Stephen Grew: piano
Mick Beck: tenor sax, bassoon and whistles
Phillip Marks: percussion
По всем вопросам пишите личное сообщение пользователю M0p94ok.
05:10
127
Нет комментариев. Ваш будет первым!