Поиск

(Contemporary Jazz, Free Improvisation, Free Jazz) [CD] Giancarlo Schiaffini (Michele Rabbia, Eugenio Colombo, Walter Prati, Sebi Tramontana, Alberto Mandarini, Gianluigi Trovesi....) - Schiaffini - 2012 (2cd), FLAC (tracks+.cue), lossless

(Contemporary Jazz, Free Improvisation, Free Jazz) [CD] Giancarlo Schiaffini (Michele Rabbia, Eugenio Colombo, Walter Prati, Sebi Tramontana, Alberto Mandarini, Gianluigi Trovesi....) - Schiaffini - 2012 (2cd), FLAC (tracks+.cue), lossless
Треклист:
Giancarlo Schiaffini / Schiaffini
Жанр: Contemporary Jazz, Free Improvisation, Free Jazz
Носитель: CD
Страна-производитель диска (релиза): Italy
Год издания: 2012
Издатель (лейбл): Auditorium Edizioni
Номер по каталогу: AUD 04412
Аудиокодек: FLAC (*.flac)
Тип рипа: tracks+.cue
Битрейт аудио: lossless
Продолжительность: 74:57+61:30
Источник (релизер): cd
Наличие сканов в содержимом раздачи: нет
Треклист:
CD 1 Green
1. Flaps (Composed By – Maras, Schiaffini, Trovesi) 5:04
2. You Are What This Day Is About (Composed By – Shepp) 3:52
3. Achab's Dream (Composed By – Schiaffini) 5:20
4. Love Is Here To Stay (Composed By – G. & I. Gershwin) 5:47
5. Pezzo Sul Ramo (Composed By – Colombo, Schiaffini, Iannaccone) 3:36
6. 10 A.M.(Composed By – Schiaffini) 10:19
7. Embraceable You (Composed By – G. & I. Gershwin) 6:51
8. Old Fashioned (Composed By – Schiaffini) 2:45
9. Maknongan (Composed By – Giacinto Scelsi) 3:44
10. Walking The Sphynx (Composed By – Schiaffini, Prati) 3:21
11. Vera (Excerpt) (Composed By – Schiaffini) 3:52
12. Ho Veduto Volare. Trittico Per Boccioni (Excerpt) (Composed By – Schiaffini, Schiavoni) 3:42
13. My Favorite Things (Composed By – Rodgers-Hammerstein) 3:57
14. Post-Prae-Ludium Per Donau (Composed By – Luigi Nono) 13:35
CD 2 Amber
Con Spaventata Passione
1. Per Elly (Composed By – Schiaffini) 6:07
2. Stringhe (Composed By – Schiaffini) 4:51
3. Gabbie Aperte (Composed By – Schiaffini) 5:15
4. S+T (Composed By – Schiaffini) 2:25
5. Indigo (Composed By – Schiaffini) 9:48
6. Sat (Composed By – Schiaffini) 4:10
7. Gabbie Chiuse (Composed By – Schiaffini) 7:00
8. Walking Off (Composed By – Schiaffini) 3:16
9. Rib (Composed By – Schiaffini) 9:42
10. La Voce Logica (Composed By – Schiaffini) 5:49
11. Con Spaventata Passione (Composed By – Schiaffini) 3:36
 
Лог создания рипа
Exact Audio Copy V1.0 beta 3 from 29. August 2011
EAC extraction logfile from 6. December 2014, 10:25
Giancarlo Schiaffini / Schiaffini
Used drive : ASUS DRW-24F1ST a Adapter: 0 ID: 0
Read mode : Secure
Utilize accurate stream : Yes
Defeat audio cache : Yes
Make use of C2 pointers : No
Read offset correction : 6
Overread into Lead-In and Lead-Out : No
Fill up missing offset samples with silence : Yes
Delete leading and trailing silent blocks : No
Null samples used in CRC calculations : Yes
Used interface : Native Win32 interface for Win NT & 2000
Gap handling : Appended to previous track
Used output format : User Defined Encoder
Selected bitrate : 320 kBit/s
Quality : High
Add ID3 tag : No
Command line compressor : D:\Programs\Exact Audio Copy\Flac\flac.exe
Additional command line options : -V -8 -T "Genre=%genre%" -T "Artist=%artist%" -T "Title=%title%" -T "Album=%albumtitle%" -T "Date=%year%" -T "Tracknumber=%tracknr%" -T "Comment=%comment%" %source%
TOC of the extracted CD
Track | Start | Length | Start sector | End sector
---------------------------------------------------------
1 | 0:00.00 | 5:00.40 | 0 | 22539
2 | 5:00.40 | 3:42.03 | 22540 | 39192
3 | 8:42.43 | 5:17.43 | 39193 | 63010
4 | 14:00.11 | 5:46.71 | 63011 | 89031
5 | 19:47.07 | 3:34.31 | 89032 | 105112
6 | 23:21.38 | 10:15.00 | 105113 | 151237
7 | 33:36.38 | 6:48.08 | 151238 | 181845
8 | 40:24.46 | 2:40.37 | 181846 | 193882
9 | 43:05.08 | 3:33.23 | 193883 | 209880
10 | 46:38.31 | 3:13.18 | 209881 | 224373
11 | 49:51.49 | 3:52.02 | 224374 | 241775
12 | 53:43.51 | 3:42.55 | 241776 | 258480
13 | 57:26.31 | 3:56.47 | 258481 | 276227
14 | 61:23.03 | 13:34.10 | 276228 | 337287
Track 1
Filename D:\EAC\01 Flaps.wav
Pre-gap length 0:00:02.00
Peak level 97.5 %
Extraction speed 5.1 X
Track quality 100.0 %
Test CRC E9009FB5
Copy CRC E9009FB5
Copy OK
Track 2
Filename D:\EAC\02 You are what this day is about.wav
Peak level 98.8 %
Extraction speed 5.3 X
Track quality 100.0 %
Test CRC 7F213B72
Copy CRC 7F213B72
Copy OK
Track 3
Filename D:\EAC\03 Achab's dream.wav
Peak level 100.0 %
Extraction speed 6.1 X
Track quality 100.0 %
Test CRC 1EE75AF5
Copy CRC 1EE75AF5
Copy OK
Track 4
Filename D:\EAC\04 Love is here to stay.wav
Peak level 100.0 %
Extraction speed 6.1 X
Track quality 99.9 %
Test CRC 94D64B99
Copy CRC 94D64B99
Copy OK
Track 5
Filename D:\EAC\05 Pezzo sul ramo.wav
Peak level 96.9 %
Extraction speed 6.6 X
Track quality 100.0 %
Test CRC D55B3A59
Copy CRC D55B3A59
Copy OK
Track 6
Filename D:\EAC\06 10AM.wav
Peak level 86.1 %
Extraction speed 7.9 X
Track quality 100.0 %
Test CRC 32683339
Copy CRC 32683339
Copy OK
Track 7
Filename D:\EAC\07 Embreaceable you.wav
Peak level 100.0 %
Extraction speed 8.2 X
Track quality 100.0 %
Test CRC 4D58D2DA
Copy CRC 4D58D2DA
Copy OK
Track 8
Filename D:\EAC\08 Old fashioned.wav
Peak level 54.4 %
Extraction speed 7.5 X
Track quality 100.0 %
Test CRC D3838932
Copy CRC D3838932
Copy OK
Track 9
Filename D:\EAC\09 Maknongan.wav
Peak level 100.0 %
Extraction speed 8.1 X
Track quality 100.0 %
Test CRC 99A1F59D
Copy CRC 99A1F59D
Copy OK
Track 10
Filename D:\EAC\10 Walking the sphynx.wav
Peak level 100.0 %
Extraction speed 8.1 X
Track quality 100.0 %
Test CRC 21319F56
Copy CRC 21319F56
Copy OK
Track 11
Filename D:\EAC\11 Vera.wav
Peak level 97.2 %
Extraction speed 8.6 X
Track quality 100.0 %
Test CRC 71A416DE
Copy CRC 71A416DE
Copy OK
Track 12
Filename D:\EAC\12 Ho veduto volare Trittico per boccioni.wav
Peak level 92.8 %
Extraction speed 7.6 X
Track quality 99.9 %
Test CRC B1F325B6
Copy CRC B1F325B6
Copy OK
Track 13
Filename D:\EAC\13 My favorite things.wav
Peak level 78.5 %
Extraction speed 9.0 X
Track quality 100.0 %
Test CRC 917ACA49
Copy CRC 917ACA49
Copy OK
Track 14
Filename D:\EAC\14 Post prae ludium per donau.wav
Peak level 100.0 %
Extraction speed 10.5 X
Track quality 100.0 %
Test CRC B62416F2
Copy CRC B62416F2
Copy OK
No errors occurred
End of status report
==== Log checksum 3F598F05D24BE6ED2C1347079307AD27E1CDE813AB8B00425C5DEE4FEBF96F0A ====
_______________________________________________________________________________________________________________
Exact Audio Copy V1.0 beta 3 from 29. August 2011
EAC extraction logfile from 4. December 2014, 19:54
Giancarlo Schiaffini / Schiaffini
Used drive : ASUS DRW-24F1ST a Adapter: 0 ID: 0
Read mode : Secure
Utilize accurate stream : Yes
Defeat audio cache : Yes
Make use of C2 pointers : No
Read offset correction : 6
Overread into Lead-In and Lead-Out : No
Fill up missing offset samples with silence : Yes
Delete leading and trailing silent blocks : No
Null samples used in CRC calculations : Yes
Used interface : Native Win32 interface for Win NT & 2000
Gap handling : Appended to previous track
Used output format : User Defined Encoder
Selected bitrate : 320 kBit/s
Quality : High
Add ID3 tag : No
Command line compressor : D:\Programs\Exact Audio Copy\Flac\flac.exe
Additional command line options : -V -8 -T "Genre=%genre%" -T "Artist=%artist%" -T "Title=%title%" -T "Album=%albumtitle%" -T "Date=%year%" -T "Tracknumber=%tracknr%" -T "Comment=%comment%" %source%
TOC of the extracted CD
Track | Start | Length | Start sector | End sector
---------------------------------------------------------
1 | 0:00.00 | 5:52.62 | 0 | 26461
2 | 5:52.62 | 4:28.58 | 26462 | 46619
3 | 10:21.45 | 5:36.30 | 46620 | 71849
4 | 15:58.00 | 2:25.19 | 71850 | 82743
5 | 18:23.19 | 9:47.64 | 82744 | 126832
6 | 28:11.08 | 4:09.65 | 126833 | 145572
7 | 32:20.73 | 6:59.40 | 145573 | 177037
8 | 39:20.38 | 3:16.21 | 177038 | 191758
9 | 42:36.59 | 9:40.34 | 191759 | 235292
10 | 52:17.18 | 5:36.31 | 235293 | 260523
11 | 57:53.49 | 3:37.12 | 260524 | 276810
Track 1
Filename D:\EAC\01 Per Elly.wav
Pre-gap length 0:00:02.00
Peak level 100.0 %
Extraction speed 1.9 X
Track quality 100.0 %
Test CRC 1A21DC2E
Copy CRC 1A21DC2E
Copy OK
Track 2
Filename D:\EAC\02 Stringhe.wav
Peak level 92.9 %
Extraction speed 2.1 X
Track quality 100.0 %
Test CRC 3C9A7086
Copy CRC 3C9A7086
Copy OK
Track 3
Filename D:\EAC\03 Gabbie Aperte.wav
Peak level 100.0 %
Extraction speed 2.3 X
Track quality 100.0 %
Test CRC 50D10496
Copy CRC 50D10496
Copy OK
Track 4
Filename D:\EAC\04 S+T.wav
Peak level 59.5 %
Extraction speed 2.2 X
Track quality 100.0 %
Test CRC DA4026CA
Copy CRC DA4026CA
Copy OK
Track 5
Filename D:\EAC\05 Indigo.wav
Peak level 100.0 %
Extraction speed 2.8 X
Track quality 100.0 %
Test CRC E53DF40C
Copy CRC E53DF40C
Copy OK
Track 6
Filename D:\EAC\06 Sat.wav
Peak level 100.0 %
Extraction speed 2.8 X
Track quality 100.0 %
Test CRC 29B710E7
Copy CRC 29B710E7
Copy OK
Track 7
Filename D:\EAC\07 Gabbie Chiuse.wav
Peak level 100.0 %
Extraction speed 3.2 X
Track quality 100.0 %
Test CRC 8D29E002
Copy CRC 8D29E002
Copy OK
Track 8
Filename D:\EAC\08 Walking Off.wav
Peak level 100.0 %
Extraction speed 3.0 X
Track quality 100.0 %
Test CRC 216FD435
Copy CRC 216FD435
Copy OK
Track 9
Filename D:\EAC\09 Rib.wav
Peak level 100.0 %
Extraction speed 3.6 X
Track quality 100.0 %
Test CRC DE58DEB6
Copy CRC DE58DEB6
Copy OK
Track 10
Filename D:\EAC\10 La Voce Logica.wav
Peak level 66.2 %
Extraction speed 3.6 X
Track quality 100.0 %
Test CRC 97A994F1
Copy CRC 97A994F1
Copy OK
Track 11
Filename D:\EAC\11 Con Spaventata Passione.wav
Peak level 100.0 %
Extraction speed 3.1 X
Track quality 99.9 %
Test CRC 94942FDF
Copy CRC 94942FDF
Copy OK
No errors occurred
End of status report
==== Log checksum 28A0E38D8C0933B2C8D7E3B7BB5D0D0ACCE73E34E8457E1419B73095A2804C7C ====
 
Содержание индексной карты (.CUE)
REM GENRE Jazz
REM DATE 2012
REM DISCID C011910E
REM COMMENT "ExactAudioCopy v1.0b3"
PERFORMER "Giancarlo Schiaffini"
TITLE "Schiaffini"
FILE "01 Flaps.wav" WAVE
TRACK 01 AUDIO
TITLE "Flaps"
PERFORMER "Giancarlo Schiaffini"
INDEX 01 00:00:00
FILE "02 You are what this day is about.wav" WAVE
TRACK 02 AUDIO
TITLE "You are what this day is about"
PERFORMER "Giancarlo Schiaffini"
INDEX 01 00:00:00
FILE "03 Achab's dream.wav" WAVE
TRACK 03 AUDIO
TITLE "Achab's dream"
PERFORMER "Giancarlo Schiaffini"
INDEX 01 00:00:00
FILE "04 Love is here to stay.wav" WAVE
TRACK 04 AUDIO
TITLE "Love is here to stay"
PERFORMER "Giancarlo Schiaffini"
INDEX 01 00:00:00
FILE "05 Pezzo sul ramo.wav" WAVE
TRACK 05 AUDIO
TITLE "Pezzo sul ramo"
PERFORMER "Giancarlo Schiaffini"
INDEX 01 00:00:00
FILE "06 10AM.wav" WAVE
TRACK 06 AUDIO
TITLE "10AM"
PERFORMER "Giancarlo Schiaffini"
INDEX 01 00:00:00
FILE "07 Embreaceable you.wav" WAVE
TRACK 07 AUDIO
TITLE "Embreaceable you"
PERFORMER "Giancarlo Schiaffini"
INDEX 01 00:00:00
FILE "08 Old fashioned.wav" WAVE
TRACK 08 AUDIO
TITLE "Old fashioned"
PERFORMER "Giancarlo Schiaffini"
INDEX 01 00:00:00
FILE "09 Maknongan.wav" WAVE
TRACK 09 AUDIO
TITLE "Maknongan"
PERFORMER "Giancarlo Schiaffini"
INDEX 01 00:00:00
FILE "10 Walking the sphynx.wav" WAVE
TRACK 10 AUDIO
TITLE "Walking the sphynx"
PERFORMER "Giancarlo Schiaffini"
INDEX 01 00:00:00
FILE "11 Vera.wav" WAVE
TRACK 11 AUDIO
TITLE "Vera"
PERFORMER "Giancarlo Schiaffini"
INDEX 01 00:00:00
FILE "12 Ho veduto volare Trittico per boccioni.wav" WAVE
TRACK 12 AUDIO
TITLE "Ho veduto volare Trittico per boccioni"
PERFORMER "Giancarlo Schiaffini"
INDEX 01 00:00:00
FILE "13 My favorite things.wav" WAVE
TRACK 13 AUDIO
TITLE "My favorite things"
PERFORMER "Giancarlo Schiaffini"
INDEX 01 00:00:00
FILE "14 Post prae ludium per donau.wav" WAVE
TRACK 14 AUDIO
TITLE "Post prae ludium per donau"
PERFORMER "Giancarlo Schiaffini"
INDEX 01 00:00:00
____________________________________________________________________________________________________________
REM GENRE Jazz
REM DATE 2012
REM DISCID 960E6A0B
REM COMMENT "ExactAudioCopy v1.0b3"
PERFORMER "Giancarlo Schiaffini"
TITLE "Schiaffini"
FILE "01 Per Elly.wav" WAVE
TRACK 01 AUDIO
TITLE "Per Elly"
PERFORMER "Giancarlo Schiaffini"
INDEX 01 00:00:00
FILE "02 Stringhe.wav" WAVE
TRACK 02 AUDIO
TITLE "Stringhe"
PERFORMER "Giancarlo Schiaffini"
INDEX 01 00:00:00
FILE "03 Gabbie Aperte.wav" WAVE
TRACK 03 AUDIO
TITLE "Gabbie Aperte"
PERFORMER "Giancarlo Schiaffini"
INDEX 01 00:00:00
FILE "04 S+T.wav" WAVE
TRACK 04 AUDIO
TITLE "S+T"
PERFORMER "Giancarlo Schiaffini"
INDEX 01 00:00:00
FILE "05 Indigo.wav" WAVE
TRACK 05 AUDIO
TITLE "Indigo"
PERFORMER "Giancarlo Schiaffini"
INDEX 01 00:00:00
FILE "06 Sat.wav" WAVE
TRACK 06 AUDIO
TITLE "Sat"
PERFORMER "Giancarlo Schiaffini"
INDEX 01 00:00:00
FILE "07 Gabbie Chiuse.wav" WAVE
TRACK 07 AUDIO
TITLE "Gabbie Chiuse"
PERFORMER "Giancarlo Schiaffini"
INDEX 01 00:00:00
FILE "08 Walking Off.wav" WAVE
TRACK 08 AUDIO
TITLE "Walking Off"
PERFORMER "Giancarlo Schiaffini"
INDEX 01 00:00:00
FILE "09 Rib.wav" WAVE
TRACK 09 AUDIO
TITLE "Rib"
PERFORMER "Giancarlo Schiaffini"
INDEX 01 00:00:00
FILE "10 La Voce Logica.wav" WAVE
TRACK 10 AUDIO
TITLE "La Voce Logica"
PERFORMER "Giancarlo Schiaffini"
INDEX 01 00:00:00
FILE "11 Con Spaventata Passione.wav" WAVE
TRACK 11 AUDIO
TITLE "Con Spaventata Passione"
PERFORMER "Giancarlo Schiaffini"
INDEX 01 00:00:00
Доп. информация: 1-1: 05/06-01-1992 FX Studio, Milano
1-2: 01-09-2005 Sant'Anna Arresi
1-3: 28/29-04-1986 studio SudWestFunk, Freiburg i. B. Germania
1-4, 1-7: 30-07-2008 Buonconvento SI
1-5: 20-09-1978 Milano
1-6: 1980 Roma
1-8: 1973 Roma
1-9: 25-05-1999 New York University
1-10: 1995-2004 FX Studio, Milano
1-11: 11-07-2002, On the Road Festival, Pelago
1-12: 04-11-2007 Festival Nuova Consonanza, Villa Aurelia, Roma
1-13: January-March 2006 S. Cecilia, Roma
1-14: 30-10-2009 Auditorium de Minas, Guanajuato, Mexico
2-1 to 2-11: 15-01-2011, Sala Estense, Ferrara
 
Состав
Accordion – Claudia Bombardella (tracks: 1-11)
Alto Saxophone – Charlie Mariano (tracks: 1-11), Gaspare De Vito (tracks: 2-1 to 2-11), Sandro Satta (tracks: 1-11)
Baritone Saxophone – Italo D'Amato (tracks: 2-1 to 2-11)
Bass Clarinet – Eugenio Colombo (tracks: 1-5), Mauro Rolfini (tracks: 2-1 to 2-11)
Bass Tuba – Beppe Caruso (tracks: 1-2, 1-4, 1-7)
Bassoon – Federica Maglioni (tracks: 2-1 to 2-11)
Cello – Walter Prati (tracks: 1-10, 2-1 to 2-11)
Clarinet [Piccolo Clarinet], Electronics [Live Electronics] – Gianluigi Trovesi (tracks: 1-1)
Double Bass – Bruno Tommaso (tracks: 1-8), Giovanni Maier (tracks: 1-2, 1-4, 1-7), Silvia Bolognesi (tracks: 2-1 to 2-11)
Drums – Michele Rabbia (tracks: 1-11), Simone Sferruzza (tracks: 2-1 to 2-11), U. T. Gandhi (tracks: 1-2, 1-4, 1-7)
Electronics – Giancarlo Schiaffini (tracks: 2-1 to 2-11)
Electronics [Live Electronics] – Federica Maglioni (tracks: 2-10), Giancarlo Schiaffini (tracks: 1-1, 1-3, 1-10), Walter Prati (tracks: 1-1, 1-10)
Electronics [Live Electronics], Recording Supervisor – Alvise Vidolin (tracks: 1-13)
Ensemble – Phantabrass (tracks: 1-2, 1-4, 1-7), Portofranco Multicolor Orchestra (tracks: 1-11)
Euphonium – Giancarlo Schiaffini (tracks: 1-6), Gianpiero Malfatto (tracks: 1-2, 1-4, 1-7)
French Horn – Martin Mayes (tracks: 1-2, 1-4, 1-7, 1-11)
Harp – Anna Forlivesi (tracks: 2-1 to 2-11)
Percussion – Michele Iannaccone (tracks: 1-5, 1-8), Valerio Perla (tracks: 1-11)
Percussion, Electronics [Live Electronics] – Fulvio Maras (tracks: 1-1)
Piano – Dick Halligan (tracks: 1-13)
Soprano Saxophone – Eugenio Colombo (tracks: 1-11), Maurizio Giammarco (tracks: 1-8)
Trombone – Giacomo Scanavini (tracks: 2-1 to 2-11), Giancarlo Schiaffini (tracks: 1-1, 1-2, 1-4, 1-5, 1-7 to 1-10, 1-12, 1-13), Lauro Rossi (tracks: 1-2, 1-4, 1-7, 1-11), Sebi Tramontana (tracks: 1-2, 1-4, 1-7)
Trumpet – Alberto Mandarini (tracks: 1-2, 1-4, 1-7, 1-11), Flavio Davanzo (tracks: 1-2, 1-4, 1-7), Luca Calabrese (tracks: 1-2, 1-4, 1-7), Mario Mariotti (2) (tracks: 2-1 to 2-11)
Tuba – Giancarlo Schiaffini (tracks: 1-3, 1-14), Marco Fagioli (tracks: 1-11)
Violin – Stefano Pastor (tracks: 2-1 to 2-11)
Voice – Silvia Schiavoni (tracks: 1-4, 1-7, 1-12, 1-13)
Voice [Reciting Voice] – Marcello Brondi (tracks: 2-1 to 2-11)
По всем вопросам пишите личное сообщение пользователю M0p94ok.
06:53
113
Нет комментариев. Ваш будет первым!