Вы используете незарегистрированную версию компонента "Вкладки"!

Поиск

(Avant-Garde Jazz, Free Improvisation) [CD] Giancarlo Schiaffini and The Peter Fraize Trio (Steve Zerlin, Leland Nakamura) - Deconstruction! Live in Washington, D.C. - 2000, FLAC (tracks+.cue), lossless

(Avant-Garde Jazz, Free Improvisation) [CD] Giancarlo Schiaffini and The Peter Fraize Trio (Steve Zerlin, Leland Nakamura) - Deconstruction! Live in Washington, D.C. - 2000, FLAC (tracks+.cue), lossless
Треклист:
Giancarlo Schiaffini and The Peter Fraize Trio / Deconstruction! Live in Washington D.C.
Жанр: Avant-Garde Jazz, Free Improvisation
Носитель: CD
Страна-производитель диска (релиза): Italy
Год издания: 2000
Издатель (лейбл): Pentaflowers
Номер по каталогу: CDPIA 050
Аудиокодек: FLAC (*.flac)
Тип рипа: tracks+.cue
Битрейт аудио: lossless
Продолжительность: 63:24
Источник (релизер): cd
Наличие сканов в содержимом раздачи: нет
Треклист:
01. Indigo Owl 15:51
02. Que Viva 15:49
03. Gabble 10:23
04. Mercoledi 17 10:18
05. In A Mellow Tone 11:02
 
Лог создания рипа
Exact Audio Copy V1.0 beta 3 from 29. August 2011
EAC extraction logfile from 4. December 2014, 13:32
Giancarlo Schiaffini and The Peter Fraize Trio / Deconstruction
Used drive : ASUS DRW-24F1ST a Adapter: 0 ID: 0
Read mode : Secure
Utilize accurate stream : Yes
Defeat audio cache : Yes
Make use of C2 pointers : No
Read offset correction : 6
Overread into Lead-In and Lead-Out : No
Fill up missing offset samples with silence : Yes
Delete leading and trailing silent blocks : No
Null samples used in CRC calculations : Yes
Used interface : Native Win32 interface for Win NT & 2000
Gap handling : Appended to previous track
Used output format : User Defined Encoder
Selected bitrate : 320 kBit/s
Quality : High
Add ID3 tag : No
Command line compressor : D:\Programs\Exact Audio Copy\Flac\flac.exe
Additional command line options : -V -8 -T "Genre=%genre%" -T "Artist=%artist%" -T "Title=%title%" -T "Album=%albumtitle%" -T "Date=%year%" -T "Tracknumber=%tracknr%" -T "Comment=%comment%" %source%
TOC of the extracted CD
Track | Start | Length | Start sector | End sector
---------------------------------------------------------
1 | 0:00.00 | 15:51.45 | 0 | 71369
2 | 15:51.45 | 15:49.47 | 71370 | 142591
3 | 31:41.17 | 10:23.05 | 142592 | 189321
4 | 42:04.22 | 10:18.00 | 189322 | 235671
5 | 52:22.22 | 11:02.25 | 235672 | 285346
Track 1
Filename D:\EAC\01 Indigo Owl.wav
Pre-gap length 0:00:02.00
Peak level 99.2 %
Extraction speed 5.6 X
Track quality 100.0 %
Test CRC CD2F4945
Copy CRC CD2F4945
Copy OK
Track 2
Filename D:\EAC\02 Que Viva.wav
Peak level 99.2 %
Extraction speed 7.2 X
Track quality 100.0 %
Test CRC 80330474
Copy CRC 80330474
Copy OK
Track 3
Filename D:\EAC\03 Gabble.wav
Peak level 99.2 %
Extraction speed 8.1 X
Track quality 100.0 %
Test CRC EB774EB6
Copy CRC EB774EB6
Copy OK
Track 4
Filename D:\EAC\04 Mercoledi 17.wav
Peak level 99.2 %
Extraction speed 8.6 X
Track quality 100.0 %
Test CRC 623F6A08
Copy CRC 623F6A08
Copy OK
Track 5
Filename D:\EAC\05 In A Mellow Tone.wav
Peak level 99.2 %
Extraction speed 8.9 X
Track quality 99.9 %
Test CRC E9C64130
Copy CRC E9C64130
Copy OK
No errors occurred
End of status report
==== Log checksum 6D363FBA3433F39D300AFF85823DD6D2B376D3F17A9E7F138B0BC189B8C481E0 ====
 
Содержание индексной карты (.CUE)
REM GENRE Jazz
REM DATE 2000
REM DISCID 3B0EDC05
REM COMMENT "ExactAudioCopy v1.0b3"
PERFORMER "Giancarlo Schiaffini and The Peter Fraize Trio"
TITLE "Deconstruction"
FILE "01 Indigo Owl.wav" WAVE
TRACK 01 AUDIO
TITLE "Indigo Owl"
PERFORMER "Giancarlo Schiaffini and The Peter Fraize Trio"
INDEX 01 00:00:00
FILE "02 Que Viva.wav" WAVE
TRACK 02 AUDIO
TITLE "Que Viva"
PERFORMER "Giancarlo Schiaffini and The Peter Fraize Trio"
INDEX 01 00:00:00
FILE "03 Gabble.wav" WAVE
TRACK 03 AUDIO
TITLE "Gabble"
PERFORMER "Giancarlo Schiaffini and The Peter Fraize Trio"
INDEX 01 00:00:00
FILE "04 Mercoledi 17.wav" WAVE
TRACK 04 AUDIO
TITLE "Mercoledi 17"
PERFORMER "Giancarlo Schiaffini and The Peter Fraize Trio"
INDEX 01 00:00:00
FILE "05 In A Mellow Tone.wav" WAVE
TRACK 05 AUDIO
TITLE "In A Mellow Tone"
PERFORMER "Giancarlo Schiaffini and The Peter Fraize Trio"
INDEX 01 00:00:00
 
Состав
Giancarlo Schiaffini - trombone
Peter Fraize - tenor saxophone
Steve Zerlin - bass
Leland Nakamura - drums
По всем вопросам пишите личное сообщение пользователю M0p94ok.
06:54
153
Нет комментариев. Ваш будет первым!