Вы используете незарегистрированную версию компонента "Вкладки"!

Поиск

(Avant-Garde Jazz, Free Jazz) [CD] Ivo Perelman (with Matthew Shipp, Michael Bisio, Whit Dickey) - The Other Edge - 2014, FLAC (tracks+.cue), lossless

(Avant-Garde Jazz, Free Jazz) [CD] Ivo Perelman (with Matthew Shipp, Michael Bisio, Whit Dickey) - The Other Edge - 2014, FLAC (tracks+.cue), lossless
Треклист:
I V O P E R E L M A N T H E O T H E R E D G E Жанр: Avant-Garde Jazz, Free Jazz
Страна-производитель диска (релиза): UK
Год издания: 2014
Издатель (лейбл): Leo Records
Номер по каталогу: LR 699
Аудиокодек: FLAC (*.flac)
Тип рипа: tracks+.cue
Битрейт аудио: lossless
Продолжительность: 65:04
Источник (релизер): спасибо dtromp
Наличие сканов в содержимом раздачи: да
Треклист:
1. Desert Flower
2. Panem Et Circenses Part 1
3. Crystal Clear
4. Panem Et Circenses Part 2
5. Latin Vibes
6. Petals or Thorns?
7. Big Band Swing
8. The Other Edge
 
Лог создания рипа
Exact Audio Copy V1.0 beta 3 from 29. August 2011
EAC extraction logfile from 6. December 2014, 10:44
Ivo Perelman / The Other Edge
Used drive : ATAPI iHBS112 2 Adapter: 2 ID: 0
Read mode : Secure
Utilize accurate stream : Yes
Defeat audio cache : Yes
Make use of C2 pointers : No
Read offset correction : 6
Overread into Lead-In and Lead-Out : No
Fill up missing offset samples with silence : Yes
Delete leading and trailing silent blocks : No
Null samples used in CRC calculations : Yes
Used interface : Native Win32 interface for Win NT & 2000
Gap handling : Appended to previous track
Used output format : User Defined Encoder
Selected bitrate : 1024 kBit/s
Quality : High
Add ID3 tag : No
Command line compressor : C:\Program Files\FLAC Frontend\tools\flac.exe
Additional command line options : -8 -V -T "ARTIST=%artist%" -T "TITLE=%title%" -T "ALBUM=%albumtitle%" -T "DATE=%year%" -T "TRACKNUMBER=%tracknr%" -T "TOTALTRACKS=%numtracks%" -T "GENRE=%genre%" -T "ALBUMARTIST=%albumartist%" -T "ALBUM ARTIST=%albumartist%" -T "COMPOSER=%composer%" -T "PERFORMER=%albuminterpret%" -T "DISCNUMBER=%cdnumber%" -T "TOTALDISCS=%totalcds%" -T "COMMENT=EAC Secure Mode, Test & Copy, AccurateRip, FLAC -8" %source%
TOC of the extracted CD
Track | Start | Length | Start sector | End sector
---------------------------------------------------------
1 | 0:00.00 | 10:57.67 | 0 | 49341
2 | 10:57.67 | 9:29.04 | 49342 | 92020
3 | 20:26.71 | 4:15.40 | 92021 | 111185
4 | 24:42.36 | 10:51.67 | 111186 | 160077
5 | 35:34.28 | 5:48.53 | 160078 | 186230
6 | 41:23.06 | 6:37.52 | 186231 | 216057
7 | 48:00.58 | 6:55.63 | 216058 | 247245
8 | 54:56.46 | 10:22.67 | 247246 | 293962
Track 1
Filename P:\DL\Ivo Perelman - The Other Edge (2014) [FLAC]\01 - Desert Flower.wav
Pre-gap length 0:00:02.00
Peak level 100.0 %
Extraction speed 6.0 X
Track quality 100.0 %
Test CRC 95D87D53
Copy CRC 95D87D53
Track not present in AccurateRip database
Copy OK
Track 2
Filename P:\DL\Ivo Perelman - The Other Edge (2014) [FLAC]\02 - Panem Et Circenses Part 1.wav
Pre-gap length 0:00:02.00
Peak level 100.0 %
Extraction speed 6.6 X
Track quality 99.9 %
Test CRC C8ADC655
Copy CRC C8ADC655
Track not present in AccurateRip database
Copy OK
Track 3
Filename P:\DL\Ivo Perelman - The Other Edge (2014) [FLAC]\03 - Crystal Clear.wav
Pre-gap length 0:00:02.00
Peak level 100.0 %
Extraction speed 7.3 X
Track quality 100.0 %
Test CRC F2EF7476
Copy CRC F2EF7476
Track not present in AccurateRip database
Copy OK
Track 4
Filename P:\DL\Ivo Perelman - The Other Edge (2014) [FLAC]\04 - Panem Et Circenses Part 2.wav
Pre-gap length 0:00:02.00
Peak level 100.0 %
Extraction speed 8.5 X
Track quality 100.0 %
Test CRC 2BBD922A
Copy CRC 2BBD922A
Track not present in AccurateRip database
Copy OK
Track 5
Filename P:\DL\Ivo Perelman - The Other Edge (2014) [FLAC]\05 - Latin Vibes.wav
Pre-gap length 0:00:03.00
Peak level 100.0 %
Extraction speed 8.8 X
Track quality 100.0 %
Test CRC 078EA7D2
Copy CRC 078EA7D2
Track not present in AccurateRip database
Copy OK
Track 6
Filename P:\DL\Ivo Perelman - The Other Edge (2014) [FLAC]\06 - Petals or Thorns.wav
Pre-gap length 0:00:02.00
Peak level 100.0 %
Extraction speed 9.6 X
Track quality 100.0 %
Test CRC 1A7AB324
Copy CRC 1A7AB324
Track not present in AccurateRip database
Copy OK
Track 7
Filename P:\DL\Ivo Perelman - The Other Edge (2014) [FLAC]\07 - Big Band Swing.wav
Pre-gap length 0:00:02.00
Peak level 100.0 %
Extraction speed 10.2 X
Track quality 100.0 %
Test CRC B69DA96E
Copy CRC B69DA96E
Track not present in AccurateRip database
Copy OK
Track 8
Filename P:\DL\Ivo Perelman - The Other Edge (2014) [FLAC]\08 - The Other Edge.wav
Pre-gap length 0:00:02.00
Peak level 100.0 %
Extraction speed 11.1 X
Track quality 100.0 %
Test CRC 15BB26FB
Copy CRC 15BB26FB
Track not present in AccurateRip database
Copy OK
None of the tracks are present in the AccurateRip database
No errors occurred
End of status report
---- CUETools DB Plugin V2.1.3
[CTDB TOCID: 2jPF6yLGvwSfx5EOowUEJ44hgnc-] found, Submit result: 2jPF6yLGvwSfx5EOowUEJ44hgnc- has been confirmed
[84b33ffc] (1/1) Accurately ripped
==== Log checksum 31488A92B9F2E0FA9B0D67730043D2C5B7BF859EB80983B0E43E4D43C94C3485 ====
 
Содержание индексной карты (.CUE)
REM GENRE Jazz
REM DATE 2014
REM DISCID 7D0F4F08
REM COMMENT "ExactAudioCopy v1.0b3"
PERFORMER "Ivo Perelman"
TITLE "The Other Edge"
FILE "01 - Desert Flower.wav" WAVE
TRACK 01 AUDIO
TITLE "Desert Flower"
PERFORMER "Ivo Perelman"
FLAGS DCP
INDEX 01 00:00:00
TRACK 02 AUDIO
TITLE "Panem Et Circenses Part 1"
PERFORMER "Ivo Perelman"
FLAGS DCP
INDEX 00 10:55:67
FILE "02 - Panem Et Circenses Part 1.wav" WAVE
INDEX 01 00:00:00
TRACK 03 AUDIO
TITLE "Crystal Clear"
PERFORMER "Ivo Perelman"
FLAGS DCP
INDEX 00 09:27:04
FILE "03 - Crystal Clear.wav" WAVE
INDEX 01 00:00:00
TRACK 04 AUDIO
TITLE "Panem Et Circenses Part 2"
PERFORMER "Ivo Perelman"
FLAGS DCP
INDEX 00 04:13:40
FILE "04 - Panem Et Circenses Part 2.wav" WAVE
INDEX 01 00:00:00
TRACK 05 AUDIO
TITLE "Latin Vibes"
PERFORMER "Ivo Perelman"
FLAGS DCP
INDEX 00 10:48:67
FILE "05 - Latin Vibes.wav" WAVE
INDEX 01 00:00:00
TRACK 06 AUDIO
TITLE "Petals or Thorns"
PERFORMER "Ivo Perelman"
FLAGS DCP
INDEX 00 05:46:53
FILE "06 - Petals or Thorns.wav" WAVE
INDEX 01 00:00:00
TRACK 07 AUDIO
TITLE "Big Band Swing"
PERFORMER "Ivo Perelman"
FLAGS DCP
INDEX 00 06:35:52
FILE "07 - Big Band Swing.wav" WAVE
INDEX 01 00:00:00
TRACK 08 AUDIO
TITLE "The Other Edge"
PERFORMER "Ivo Perelman"
FLAGS DCP
INDEX 00 06:53:63
FILE "08 - The Other Edge.wav" WAVE
INDEX 01 00:00:00
 
Об альбоме
Of the many machinations and combinations saxophonist Ivo Perelman has utilized for the twenty or so recordings he has released since 2010 (all on Leo Records with the exception of One (RareNoise, 2013)), the majority seem to either include pianist Mathew Shipp or include his musical fraternity. The two musicians are compatriots, brothers of different mothers. Well, actually, the same fathers—the post- Coltane/post- Ayler free jazz continuum. When Perelman records a session with Matthew Shipp's working trio of bassist Michael Bisio and drummer Whit Dickey the results are predictably outstanding.
This session follows the quartet's maiden voyage The Edge (Leo Records, 2013), recorded eighteen months apart. The music is forceful, passionate, droll, incendiary, and ultimately satisfying.
The disc opens with "Desert Flower." Perelman's saxophone solo is a goading attack of notes that incite the trio to "Desert Flower" to stalk the horn with hammering notes. The upper register saxophone energy gives way to a more thought-provoking passage, Shipp's notes flowing from an endless spool of passion. Bisio's bowed opening to "Panem Et Circenses Part 1" settles the trio into a reflective temper that inspires Perelman to draw from more upper register notes, tailored to a desolation theme. "Part 2" is unmistakably guided by Shipp's musical language, a sort of fusion of free jazz and classical music. Elsewhere, the breakneck speed of "Latin Vibe" creates a perpetual motion of sound that seems to linger even after the track ends. "Big Bang Swing" is the closest the quartet comes to bebop, performing a 4/4 drunk dance of swing. Daring and beautiful music. (Mark Corroto, AllAboutJazz)
 
Состав

tenor sax - IVO PERELMAN ✩ MICHAEL BISIO - bass
piano - MATTHEW SHIPP ✩ WHIT DICKEY - drums
По всем вопросам пишите личное сообщение пользователю M0p94ok.
06:53
98
Нет комментариев. Ваш будет первым!