Вы используете незарегистрированную версию компонента "Вкладки"!

Поиск

(Contemporary Jazz, Avant-Garde Jazz, Vocal Jazz) Kaoru (w/ Vinny Golia, Brad Dutz, Michael Whitmore) - Welcome To Our Breakfast - 1995, FLAC (tracks+.cue), lossless

(Contemporary Jazz, Avant-Garde Jazz, Vocal Jazz) Kaoru (w/ Vinny Golia, Brad Dutz, Michael Whitmore) - Welcome To Our Breakfast - 1995, FLAC (tracks+.cue), lossless
Треклист:
Kaoru (w/ Vinny Golia, Brad Dutz, Michael Whitmore) / Welcome To Our Breakfast
Жанр: Contemporary Jazz, Avant-Garde Jazz, Vocal Jazz
Страна-производитель диска: US
Год издания: 1995
Издатель (лейбл): 9 Winds
Номер по каталогу: ‎NWCD 0176
Страна: US
Аудиокодек: FLAC (*.flac)
Тип рипа: tracks+.cue
Битрейт аудио: lossless
Продолжительность: 49:05
Источник (релизер): свой фирменный диск
Наличие сканов в содержимом раздачи: нет
Треклист:
1 Bowl Of Seeds 5:57
2 O.M.K. 2:59
3 Moon's Falling Down 3:59
4 Hai 2:13
5 Welcome To Our Breakfast 4:11
6 How Long Did You Wait For Me? 2:55
7 Is That Broken? 3:39
8 Moshi Anata Dekaketainara 3:47
9 I Dream Of Train 4:23
10 Untitled 1:37
11 Stich 2:12
12 The 5th Room Is The One 3:56
13 Moss Berry 3:06
14 Denkyu 3:26
 
Лог создания рипа
Exact Audio Copy V1.0 beta 3 from 29. August 2011
EAC extraction logfile from 31. January 2013, 22:45
Kaoru / Welcome To Our Breakfast
Used drive : PIONEER DVD-RW DVR-115D Adapter: 0 ID: 0
Read mode : Secure
Utilize accurate stream : Yes
Defeat audio cache : Yes
Make use of C2 pointers : No
Read offset correction : 48
Overread into Lead-In and Lead-Out : No
Fill up missing offset samples with silence : Yes
Delete leading and trailing silent blocks : No
Null samples used in CRC calculations : Yes
Used interface : Installed external ASPI interface
Gap handling : Appended to previous track
Used output format : User Defined Encoder
Selected bitrate : 896 kBit/s
Quality : High
Add ID3 tag : No
Command line compressor : C:\Program Files\Exact Audio Copy\FLAC\FLAC.EXE
Additional command line options : -6 -V -T "ARTIST=%artist%" -T "TITLE=%title%" -T "ALBUM=%albumtitle%" -T "DATE=%year%" -T "TRACKNUMBER=%tracknr%" -T "GENRE=%genre%" -T "COMMENT=%comment%" -T "BAND=%albuminterpret%" -T "COMPOSER=%composer%" %haslyrics%--tag-from-file=LYRICS="%lyricsfile%"%haslyrics% -T "DISCNUMBER=%cdnumber%" -T "TOTALDISCS=%totalcds%" -T "TOTALTRACKS=%numtracks%" %hascover%--picture="%coverfile%"%hascover% %source% -o %dest%
TOC of the extracted CD
Track | Start | Length | Start sector | End sector
---------------------------------------------------------
1 | 0:00.00 | 6:01.63 | 0 | 27137
2 | 6:01.63 | 3:02.62 | 27138 | 40849
3 | 9:04.50 | 4:02.63 | 40850 | 59062
4 | 13:07.38 | 2:15.62 | 59063 | 69249
5 | 15:23.25 | 4:13.13 | 69250 | 88237
6 | 19:36.38 | 2:58.00 | 88238 | 101587
7 | 22:34.38 | 3:43.50 | 101588 | 118362
8 | 26:18.13 | 3:51.12 | 118363 | 135699
9 | 30:09.25 | 4:27.38 | 135700 | 155762
10 | 34:36.63 | 1:41.62 | 155763 | 163399
11 | 36:18.50 | 2:14.63 | 163400 | 173512
12 | 38:33.38 | 4:00.12 | 173513 | 191524
13 | 42:33.50 | 3:08.63 | 191525 | 205687
14 | 45:42.38 | 3:22.67 | 205688 | 220904
Track 1
Filename D:\zzz\01 - Bowls Of Seeds.wav
Pre-gap length 0:00:02.00
Peak level 96.1 %
Extraction speed 4.6 X
Track quality 99.9 %
Test CRC CFBAC9A6
Copy CRC CFBAC9A6
Track not present in AccurateRip database
Copy OK
Track 2
Filename D:\zzz\02 - O.M.K..wav
Pre-gap length 0:00:03.25
Peak level 100.0 %
Extraction speed 5.1 X
Track quality 100.0 %
Test CRC C10B23E4
Copy CRC C10B23E4
Track not present in AccurateRip database
Copy OK
Track 3
Filename D:\zzz\03 - Moon's Falling Down.wav
Pre-gap length 0:00:02.50
Peak level 97.1 %
Extraction speed 5.7 X
Track quality 100.0 %
Test CRC 03242FFB
Copy CRC 03242FFB
Track not present in AccurateRip database
Copy OK
Track 4
Filename D:\zzz\04 - Hai.wav
Pre-gap length 0:00:02.50
Peak level 71.1 %
Extraction speed 5.4 X
Track quality 100.0 %
Test CRC 34D11BD4
Copy CRC 34D11BD4
Track not present in AccurateRip database
Copy OK
Track 5
Filename D:\zzz\05 - Welcome To Our Breakfast.wav
Pre-gap length 0:00:02.25
Peak level 100.0 %
Extraction speed 6.2 X
Track quality 100.0 %
Test CRC 6FA4C01D
Copy CRC 6FA4C01D
Track not present in AccurateRip database
Copy OK
Track 6
Filename D:\zzz\06 - How Long Did You Wait For Me.wav
Pre-gap length 0:00:01.38
Peak level 97.1 %
Extraction speed 6.2 X
Track quality 100.0 %
Test CRC 0B863BF4
Copy CRC 0B863BF4
Track not present in AccurateRip database
Copy OK
Track 7
Filename D:\zzz\07 - Is That Broken.wav
Pre-gap length 0:00:02.13
Peak level 96.4 %
Extraction speed 6.6 X
Track quality 100.0 %
Test CRC 44A7AAB1
Copy CRC 44A7AAB1
Track not present in AccurateRip database
Copy OK
Track 8
Filename D:\zzz\08 - Moshi Anata Dekaketainara.wav
Pre-gap length 0:00:04.13
Peak level 95.9 %
Extraction speed 6.9 X
Track quality 100.0 %
Test CRC A346C0B7
Copy CRC A346C0B7
Track not present in AccurateRip database
Copy OK
Track 9
Filename D:\zzz\09 - I Dream Of Train.wav
Pre-gap length 0:00:02.62
Peak level 97.3 %
Extraction speed 7.3 X
Track quality 100.0 %
Test CRC 41B5630E
Copy CRC 41B5630E
Track not present in AccurateRip database
Copy OK
Track 10
Filename D:\zzz\10 - Untitled.wav
Pre-gap length 0:00:03.50
Peak level 88.3 %
Extraction speed 6.2 X
Track quality 100.0 %
Test CRC 97C47707
Copy CRC 97C47707
Track not present in AccurateRip database
Copy OK
Track 11
Filename D:\zzz\11 - Stich.wav
Pre-gap length 0:00:04.37
Peak level 95.0 %
Extraction speed 6.8 X
Track quality 100.0 %
Test CRC 8B626BE9
Copy CRC 8B626BE9
Track not present in AccurateRip database
Copy OK
Track 12
Filename D:\zzz\12 - The 5th Room Is The One.wav
Pre-gap length 0:00:02.13
Peak level 96.0 %
Extraction speed 7.7 X
Track quality 100.0 %
Test CRC 84F5C317
Copy CRC 84F5C317
Track not present in AccurateRip database
Copy OK
Track 13
Filename D:\zzz\13 - Moss Berry.wav
Pre-gap length 0:00:03.00
Peak level 95.6 %
Extraction speed 7.6 X
Track quality 100.0 %
Test CRC E6871D9B
Copy CRC E6871D9B
Track not present in AccurateRip database
Copy OK
Track 14
Filename D:\zzz\14 - Denkyu.wav
Pre-gap length 0:00:02.38
Peak level 92.3 %
Extraction speed 7.8 X
Track quality 100.0 %
Test CRC B0658F17
Copy CRC B0658F17
Track not present in AccurateRip database
Copy OK
None of the tracks are present in the AccurateRip database
No errors occurred
End of status report
==== Log checksum 17094FE4614446DA8F94AA5BB6C82BAD8DBC20FEA699B3CB2FABF1C4DFF28CB4 ====
 
Содержание индексной карты (.CUE)
REM GENRE Jazz
REM DATE 1995
REM DISCID C70B810E
REM COMMENT "ExactAudioCopy v1.0b3"
PERFORMER "Kaoru"
TITLE "Welcome To Our Breakfast"
FILE "01 - Bowls Of Seeds.wav" WAVE
TRACK 01 AUDIO
TITLE "Bowls Of Seeds"
PERFORMER "Kaoru"
INDEX 01 00:00:00
TRACK 02 AUDIO
TITLE "O.M.K."
PERFORMER "Kaoru"
INDEX 00 05:58:38
FILE "02 - O.M.K..wav" WAVE
INDEX 01 00:00:00
TRACK 03 AUDIO
TITLE "Moon's Falling Down"
PERFORMER "Kaoru"
INDEX 00 03:00:12
FILE "03 - Moon's Falling Down.wav" WAVE
INDEX 01 00:00:00
TRACK 04 AUDIO
TITLE "Hai"
PERFORMER "Kaoru"
INDEX 00 04:00:13
FILE "04 - Hai.wav" WAVE
INDEX 01 00:00:00
TRACK 05 AUDIO
TITLE "Welcome To Our Breakfast"
PERFORMER "Kaoru"
INDEX 00 02:13:37
FILE "05 - Welcome To Our Breakfast.wav" WAVE
INDEX 01 00:00:00
TRACK 06 AUDIO
TITLE "How Long Did You Wait For Me?"
PERFORMER "Kaoru"
INDEX 00 04:11:50
FILE "06 - How Long Did You Wait For Me.wav" WAVE
INDEX 01 00:00:00
TRACK 07 AUDIO
TITLE "Is That Broken?"
PERFORMER "Kaoru"
INDEX 00 02:55:62
FILE "07 - Is That Broken.wav" WAVE
INDEX 01 00:00:00
TRACK 08 AUDIO
TITLE "Moshi Anata Dekaketainara"
PERFORMER "Kaoru"
INDEX 00 03:39:37
FILE "08 - Moshi Anata Dekaketainara.wav" WAVE
INDEX 01 00:00:00
TRACK 09 AUDIO
TITLE "I Dream Of Train"
PERFORMER "Kaoru"
INDEX 00 03:48:25
FILE "09 - I Dream Of Train.wav" WAVE
INDEX 01 00:00:00
TRACK 10 AUDIO
TITLE "Untitled"
PERFORMER "Kaoru"
INDEX 00 04:23:63
FILE "10 - Untitled.wav" WAVE
INDEX 01 00:00:00
TRACK 11 AUDIO
TITLE "Stich"
PERFORMER "Kaoru"
INDEX 00 01:37:25
FILE "11 - Stich.wav" WAVE
INDEX 01 00:00:00
TRACK 12 AUDIO
TITLE "The 5th Room Is The One"
PERFORMER "Kaoru"
INDEX 00 02:12:50
FILE "12 - The 5th Room Is The One.wav" WAVE
INDEX 01 00:00:00
TRACK 13 AUDIO
TITLE "Moss Berry"
PERFORMER "Kaoru"
INDEX 00 03:57:12
FILE "13 - Moss Berry.wav" WAVE
INDEX 01 00:00:00
TRACK 14 AUDIO
TITLE "Denkyu"
PERFORMER "Kaoru"
INDEX 00 03:06:25
FILE "14 - Denkyu.wav" WAVE
INDEX 01 00:00:00
 
Лог проверки качества
d:\>d:\aucdtect -d/-m0 d:\zzz\*.wav
auCDtect: CD records authenticity detector, version 0.8.2
Copyright (c) 2004 Oleg Berngardt. All rights reserved.
Copyright (c) 2004 Alexander Djourik. All rights reserved.
------------------------------------------------------------
Processing file: [01. Bowls Of Seeds.wav]
------------------------------------------------------------
This track looks like CDDA with probability 100%
------------------------------------------------------------
Processing file: [02. O.M.K..wav]
------------------------------------------------------------
This track looks like CDDA with probability 100%
------------------------------------------------------------
Processing file: [03. Moon's Falling Down.wav]
------------------------------------------------------------
This track looks like CDDA with probability 99%
------------------------------------------------------------
Processing file: [04. Hai.wav]
------------------------------------------------------------
This track looks like CDDA with probability 100%
------------------------------------------------------------
Processing file: [05. Welcome To Our Breakfast.wav]
------------------------------------------------------------
This track looks like CDDA with probability 100%
------------------------------------------------------------
Processing file: [06. How Long Did You Wait For Me.wav]
------------------------------------------------------------
This track looks like CDDA with probability 100%
------------------------------------------------------------
Processing file: [07. Is That Broken.wav]
------------------------------------------------------------
This track looks like CDDA with probability 100%
------------------------------------------------------------
Processing file: [08. Moshi Anata Dekaketainara.wav]
------------------------------------------------------------
This track looks like CDDA with probability 100%
------------------------------------------------------------
Processing file: [09. I Dream Of Train.wav]
------------------------------------------------------------
This track looks like CDDA with probability 99%
------------------------------------------------------------
Processing file: [10. Untitled.wav]
------------------------------------------------------------
This track looks like CDDA with probability 100%
------------------------------------------------------------
Processing file: [11. Stich.wav]
------------------------------------------------------------
This track looks like CDDA with probability 100%
------------------------------------------------------------
Processing file: [12. The 5th Room Is The One.wav]
------------------------------------------------------------
This track looks like CDDA with probability 100%
------------------------------------------------------------
Processing file: [13. Moss Berry.wav]
------------------------------------------------------------
This track looks like CDDA with probability 100%
------------------------------------------------------------
Processing file: [14. Denkyu.wav]
------------------------------------------------------------
This track looks like CDDA with probability 100%
------------------------------------------------------------
Final Conclusion:
------------------------------------------------------------
These tracks looks like CDDA with probability 100%
 
Состав
Acoustic Guitar, Trumpet – Michael Whitmore
Bass [Upright] – Jeff Falkner (tracks: 1, 5, 9), Willem Von Hombrecht
Drums, Percussion – Martin Mansour
Narrator – Margreth Stich (tracks: 11)
Percussion, Clarinet, Marimba – Brad Dutz (tracks: 1, 5, 9, 12 to 14)
Reeds [Woodwinds] – Albert Von Seggan (tracks: 5, 12), Vinny Golia
Voice, Keyboards – Kaoru
Any questions -> support@pro-jazz.com. По всем вопросам пишите -> support@pro-jazz.com
08:35
162
Нет комментариев. Ваш будет первым!