Вы используете незарегистрированную версию компонента "Вкладки"!

Поиск

(Contemporary Jazz, Free Improvisation, CIMP) Kahil El'Zabar with David Murray - One World Family - 2000, FLAC (tracks+.cue), lossless

(Contemporary Jazz, Free Improvisation, CIMP) Kahil El'Zabar with David Murray - One World Family - 2000, FLAC (tracks+.cue), lossless
Треклист:
Kahil El'Zabar with David Murray / One World Family
Жанр: Contemporary Jazz, Free Improvisation, CIMP
Страна-производитель диска: U.S.A.
Год издания: 2000
Издатель (лейбл): CIMP
Номер по каталогу: CIMP #220
Аудиокодек: FLAC (*.flac)
Тип рипа: tracks+.cue
Битрейт аудио: lossless
Продолжительность: 1:09:42
Источник (релизер): Max Monteiro
Наличие сканов в содержимом раздачи: нет
Треклист:
1. Ryan’s Groove (Kahil El’Zabar & David Murray) 11:08
2. Serendipitous Journey (Kahil El’Zabar & David Murray) 8:22
3. Far Too Long (David Murray) 10:08
4. Upsy Daisey (Kahil El’Zabar & David Murray) 6:15
5. Noodle Doodle (Take 2) (Kahil El’Zabar & David Murray) 7:03
6. Kelcey’s Mystery Oasis (David Murray) 6:15
7. Noodle Doodle (Take 3) (Kahil El’Zabar & David Murray) 5:35
8. Junction Function (Kahil El’Zabar & David Murray) 7:06
9. One World Family (Kahil El’Zabar & David Murray) 7:51
 
Лог создания рипа
Exact Audio Copy V1.0 beta 3 from 29. August 2011
EAC extraction logfile from 2. February 2013, 17:31
Kahil El'Zabar with David Murray / One World Family
Used drive : SlimtypeeNAU508 5 Adapter: 1 ID: 0
Read mode : Secure
Utilize accurate stream : Yes
Defeat audio cache : Yes
Make use of C2 pointers : No
Read offset correction : 6
Overread into Lead-In and Lead-Out : No
Fill up missing offset samples with silence : Yes
Delete leading and trailing silent blocks : No
Null samples used in CRC calculations : Yes
Used interface : Native Win32 interface for Win NT & 2000
Gap handling : Appended to previous track
Used output format : User Defined Encoder
Selected bitrate : 768 kBit/s
Quality : High
Add ID3 tag : No
Command line compressor : C:\Program Files (x86)\Exact Audio Copy\Flac\flac.exe
Additional command line options : -8 -V -T "ARTIST=%artist%" -T "TITLE=%title%" -T "ALBUM=%albumtitle%" -T "DATE=%year%" -T "TRACKNUMBER=%tracknr%" -T "GENRE=%genre%" -T "PERFORMER=%albuminterpret%" -T "COMPOSER=%composer%" %haslyrics%--tag-from-file=LYRICS="%lyricsfile%"%haslyrics% -T "ALBUMARTIST=%albumartist%" -T "DISCNUMBER=%cdnumber%" -T "TOTALDISCS=%totalcds%" -T "TOTALTRACKS=%numtracks%" -T "COMMENT=%comment%" %source% -o %dest%
TOC of the extracted CD
Track | Start | Length | Start sector | End sector
---------------------------------------------------------
1 | 0:00.00 | 11:08.11 | 0 | 50110
2 | 11:08.11 | 8:22.00 | 50111 | 87760
3 | 19:30.11 | 10:08.05 | 87761 | 133365
4 | 29:38.16 | 6:14.41 | 133366 | 161456
5 | 35:52.57 | 7:03.11 | 161457 | 193192
6 | 42:55.68 | 6:15.02 | 193193 | 221319
7 | 49:10.70 | 5:34.50 | 221320 | 246419
8 | 54:45.45 | 7:05.38 | 246420 | 278332
9 | 61:51.08 | 7:51.28 | 278333 | 313685
Track 1
Filename C:\EAC rips\01 - Ryan's Groove.wav
Pre-gap length 0:00:02.00
Peak level 64.0 %
Extraction speed 2.8 X
Track quality 100.0 %
Test CRC 58C77849
Copy CRC 58C77849
Cannot be verified as accurate (confidence 1) [B4FA8E22], AccurateRip returned [EA54F4FF] (AR v2)
Copy OK
Track 2
Filename C:\EAC rips\02 - Serendipitous Journey.wav
Pre-gap length 0:00:02.57
Peak level 98.8 %
Extraction speed 3.0 X
Track quality 99.9 %
Test CRC 26DA42B9
Copy CRC 26DA42B9
Cannot be verified as accurate (confidence 1) [CE17F710], AccurateRip returned [FD2B0274] (AR v2)
Copy OK
Track 3
Filename C:\EAC rips\03 - Far Too Long.wav
Pre-gap length 0:00:02.57
Peak level 58.7 %
Extraction speed 3.8 X
Track quality 100.0 %
Test CRC 516BE1C5
Copy CRC 516BE1C5
Cannot be verified as accurate (confidence 1) [E4532C76], AccurateRip returned [FF128746] (AR v2)
Copy OK
Track 4
Filename C:\EAC rips\04 - Upsy Daisey.wav
Pre-gap length 0:00:02.57
Peak level 56.2 %
Extraction speed 3.9 X
Track quality 100.0 %
Test CRC D41D4E86
Copy CRC D41D4E86
Cannot be verified as accurate (confidence 1) [7CC58F87], AccurateRip returned [729AFD00] (AR v2)
Copy OK
Track 5
Filename C:\EAC rips\05 - Noodle Doodle (Take 2).wav
Pre-gap length 0:00:02.57
Peak level 100.0 %
Extraction speed 4.2 X
Track quality 100.0 %
Test CRC 9537CAE0
Copy CRC 9537CAE0
Cannot be verified as accurate (confidence 1) [1E7686DB], AccurateRip returned [42D08DFE] (AR v2)
Copy OK
Track 6
Filename C:\EAC rips\06 - Kelcey's Mystery Oasis.wav
Pre-gap length 0:00:02.57
Peak level 41.5 %
Extraction speed 4.4 X
Track quality 100.0 %
Test CRC 97481B40
Copy CRC 97481B40
Cannot be verified as accurate (confidence 1) [37242816], AccurateRip returned [C426E5EE] (AR v2)
Copy OK
Track 7
Filename C:\EAC rips\07 - Noodle Doodle (Take 3).wav
Pre-gap length 0:00:02.57
Peak level 100.0 %
Extraction speed 3.9 X
Track quality 99.9 %
Test CRC 461817BE
Copy CRC 461817BE
Cannot be verified as accurate (confidence 1) [C23AA9CE], AccurateRip returned [605EB9E6] (AR v2)
Copy OK
Track 8
Filename C:\EAC rips\08 - Junction Function.wav
Pre-gap length 0:00:02.57
Peak level 100.0 %
Extraction speed 4.8 X
Track quality 100.0 %
Test CRC 3CDC8F49
Copy CRC 3CDC8F49
Cannot be verified as accurate (confidence 1) [65BD07D9], AccurateRip returned [C3A7244D] (AR v2)
Copy OK
Track 9
Filename C:\EAC rips\09 - One World Family.wav
Pre-gap length 0:00:02.57
Peak level 95.5 %
Extraction speed 5.1 X
Track quality 100.0 %
Test CRC F345F2F3
Copy CRC F345F2F3
Cannot be verified as accurate (confidence 1) [8771BD3A], AccurateRip returned [859F69C1] (AR v2)
Copy OK
No tracks could be verified as accurate
You may have a different pressing from the one(s) in the database
No errors occurred
End of status report
---- CUETools DB Plugin V2.1.4
[CTDB TOCID: IlDZ3_qeXhvEZ0n0CbEPE1WqiYs-] disk not present in database
Submit result: IlDZ3_qeXhvEZ0n0CbEPE1WqiYs- has been uploaded
==== Log checksum 3D32A8CD5E6D8B59F30A7A02A616A4E22F56E4F07D4E7BCF68AC269F86765C81 ====
 
Содержание индексной карты (.CUE)
REM GENRE Jazz
REM DATE 2000
REM DISCID 7F105609
REM COMMENT "ExactAudioCopy v1.0b3"
PERFORMER "Kahil El'Zabar with David Murray"
TITLE "One World Family"
FILE "01 - Ryan's Groove.wav" WAVE
TRACK 01 AUDIO
TITLE "Ryan's Groove"
PERFORMER "Kahil El'Zabar with David Murray"
INDEX 01 00:00:00
TRACK 02 AUDIO
TITLE "Serendipitous Journey"
PERFORMER "Kahil El'Zabar with David Murray"
INDEX 00 11:05:29
FILE "02 - Serendipitous Journey.wav" WAVE
INDEX 01 00:00:00
TRACK 03 AUDIO
TITLE "Far Too Long"
PERFORMER "Kahil El'Zabar with David Murray"
INDEX 00 08:19:18
FILE "03 - Far Too Long.wav" WAVE
INDEX 01 00:00:00
TRACK 04 AUDIO
TITLE "Upsy Daisey"
PERFORMER "Kahil El'Zabar with David Murray"
INDEX 00 10:05:23
FILE "04 - Upsy Daisey.wav" WAVE
INDEX 01 00:00:00
TRACK 05 AUDIO
TITLE "Noodle Doodle (Take 2)"
PERFORMER "Kahil El'Zabar with David Murray"
INDEX 00 06:11:59
FILE "05 - Noodle Doodle (Take 2).wav" WAVE
INDEX 01 00:00:00
TRACK 06 AUDIO
TITLE "Kelcey's Mystery Oasis"
PERFORMER "Kahil El'Zabar with David Murray"
INDEX 00 07:00:29
FILE "06 - Kelcey's Mystery Oasis.wav" WAVE
INDEX 01 00:00:00
TRACK 07 AUDIO
TITLE "Noodle Doodle (Take 3)"
PERFORMER "Kahil El'Zabar with David Murray"
INDEX 00 06:12:20
FILE "07 - Noodle Doodle (Take 3).wav" WAVE
INDEX 01 00:00:00
TRACK 08 AUDIO
TITLE "Junction Function"
PERFORMER "Kahil El'Zabar with David Murray"
INDEX 00 05:31:68
FILE "08 - Junction Function.wav" WAVE
INDEX 01 00:00:00
TRACK 09 AUDIO
TITLE "One World Family"
PERFORMER "Kahil El'Zabar with David Murray"
INDEX 00 07:02:56
FILE "09 - One World Family.wav" WAVE
INDEX 01 00:00:00
Доп. информация: Recorded at The Spirit Room, Rossie, NY, March 28 & 29, 2000.
 
Состав
Kahil El’Zabar – Percussion
David Murray – Tenor Sax
Any questions -> support@pro-jazz.com. По всем вопросам пишите -> support@pro-jazz.com
08:35
166
Нет комментариев. Ваш будет первым!