Вы используете незарегистрированную версию компонента "Вкладки"!

Поиск

(Contemporary Jazz, Avant-Garde) Jane Ira Bloom - Modern Drama - 1996 (1987), APE (image+.cue), lossless

(Contemporary Jazz, Avant-Garde) Jane Ira Bloom - Modern Drama - 1996 (1987), APE (image+.cue), lossless
Треклист:
Jane Ira Bloom / Modern Drama
Жанр: Contemporary Jazz, Avant-Garde
Страна-производитель диска: USA
Год издания диска: 1996 (1987)
Издатель (лейбл): KOCH International records
Номер по каталогу: 3-7828-2
Аудиокодек: APE (*.ape)
Тип рипа: image+.cue
Битрейт аудио: lossless
Продолжительность: 44:23
Источник (релизер): Собственный рип с оригинального диска
Наличие сканов в содержимом раздачи: да
Треклист:
1 Overstars 5:42
2 Cagney 5:50
3 More Than Sinatra 4:40
4 NFL 4:31
5 Modern Drama 5:09
6 Stange and Completely 4:23
7 Varo 5:24
8 The Race (For Shirley Muldowney) 5:00
9 Rapture of the Flat 3:41
All compositions by Jane Ira Bloom (Outline Music/ BMI)
 
Лог создания рипа
Exact Audio Copy V0.99 prebeta 5 from 4. May 2009
EAC extraction logfile from 26. June 2011, 7:13
Jane Ira Bloom / Modern Drama
Used drive : Optiarc DVD RW AD-5200S Adapter: 0 ID: 1
Read mode : Secure
Utilize accurate stream : Yes
Defeat audio cache : Yes
Make use of C2 pointers : No
Read offset correction : 48
Overread into Lead-In and Lead-Out : No
Fill up missing offset samples with silence : Yes
Delete leading and trailing silent blocks : No
Null samples used in CRC calculations : Yes
Used interface : Native Win32 interface for Win NT & 2000
Used output format : Internal WAV Routines
Sample format : 44.100 Hz; 16 Bit; Stereo
TOC of the extracted CD
Track | Start | Length | Start sector | End sector
---------------------------------------------------------
1 | 0:00.00 | 5:42.12 | 0 | 25661
2 | 5:42.12 | 5:50.05 | 25662 | 51916
3 | 11:32.17 | 4:40.18 | 51917 | 72934
4 | 16:12.35 | 4:31.22 | 72935 | 93281
5 | 20:43.57 | 5:09.70 | 93282 | 116526
6 | 25:53.52 | 4:23.40 | 116527 | 136291
7 | 30:17.17 | 5:24.05 | 136292 | 160596
8 | 35:41.22 | 5:00.08 | 160597 | 183104
9 | 40:41.30 | 3:41.55 | 183105 | 199734
Range status and errors
Selected range
Filename H:\FOS\MY_MUSIC\Jane Ira Bloom\Jane Ira Bloom - Modern Drama\Jane Ira Bloom - Modern Drama.wav
Peak level 100.0 %
Range quality 100.0 %
Test CRC BC1B7521
Copy CRC BC1B7521
Copy OK
No errors occurred
End of status report
 
Содержание индексной карты (.CUE)
REM GENRE "Contemporary Jazz"
REM DATE 1987
REM DISCID 7A0A6709
REM COMMENT "ExactAudioCopy v0.99pb5"
PERFORMER "Jane Ira Bloom"
TITLE "Modern Drama"
FILE "Jane Ira Bloom - Modern Drama.wav" WAVE
TRACK 01 AUDIO
TITLE "Overstars"
PERFORMER "Jane Ira Bloom"
INDEX 01 00:00:00
TRACK 02 AUDIO
TITLE "Cagney"
PERFORMER "Jane Ira Bloom"
INDEX 00 05:39:25
INDEX 01 05:42:12
TRACK 03 AUDIO
TITLE "More Than Sinatra"
PERFORMER "Jane Ira Bloom"
INDEX 00 11:27:55
INDEX 01 11:32:17
TRACK 04 AUDIO
TITLE "NFL"
PERFORMER "Jane Ira Bloom"
INDEX 00 16:09:65
INDEX 01 16:12:35
TRACK 05 AUDIO
TITLE "Modern Drama"
PERFORMER "Jane Ira Bloom"
INDEX 00 20:40:20
INDEX 01 20:43:57
TRACK 06 AUDIO
TITLE "Strange And Completely"
PERFORMER "Jane Ira Bloom"
INDEX 00 25:51:07
INDEX 01 25:53:52
TRACK 07 AUDIO
TITLE "Varo"
PERFORMER "Jane Ira Bloom"
INDEX 00 30:15:22
INDEX 01 30:17:17
TRACK 08 AUDIO
TITLE "The Race (For Shirley Muldowney)"
PERFORMER "Jane Ira Bloom"
INDEX 00 35:38:52
INDEX 01 35:41:22
TRACK 09 AUDIO
TITLE "Rapture Of The Flat"
PERFORMER "Jane Ira Bloom"
INDEX 01 40:41:30
 
Состав
Jane Ira Bloom – soprano saxophone & live electronics, alto saxophone
Fred Hersch – piano, Hammond B3 organ
Ratzo Harris – bass, electric bass
Tom Rainey – drums
*David Friedman – vibes, marimba, percussion
+Isidro Bobadilla – percussion
Andy Seligson plays tuba on NFL
Any questions -> support@pro-jazz.com. По всем вопросам пишите -> support@pro-jazz.com
13:58
175
Нет комментариев. Ваш будет первым!