Вы используете незарегистрированную версию компонента "Вкладки"!

Поиск

(Contemporary Jazz, Avant-Garde) Jane Ira Bloom - Art & Aviation - 1992, APE (image+.cue), lossless

(Contemporary Jazz, Avant-Garde) Jane Ira Bloom - Art & Aviation - 1992, APE (image+.cue), lossless
Треклист:
Jane Ira Bloom / Art & Aviation
Жанр: Contemporary Jazz, Avant-Garde
Страна-производитель диска: USA
Год издания диска: 1992
Издатель (лейбл): Arabesque Recordings
Номер по каталогу: AJ0107
Аудиокодек: APE (*.ape)
Тип рипа: image+.cue
Битрейт аудио: lossless
Продолжительность: 58:07
Источник (релизер): Собственный рип с оригинального диска
Наличие сканов в содержимом раздачи: да
Треклист:
1. Gateway To Progress 5:26
2. Further Into the Night 6:47
3. Hawkin's Parallel Universe 6:51
4. Straight No Chaser/ Miro 5:46
5. Oshumare 8:01
6. Art & Aviation 7:14
7. Most Distant Galaxy 8:10
8. I Believe Anita 5:56
9. Lost in the Stars 3:51
All compositions by Jane Ira Bloom (Outline Music/BMI) except: Straight No Chaser, Lost in the Stars.
 
Лог создания рипа
Exact Audio Copy V0.99 prebeta 5 from 4. May 2009
EAC extraction logfile from 26. June 2011, 0:00
Jane Ira Bloom / Art & Aviation
Used drive : Optiarc DVD RW AD-5200S Adapter: 0 ID: 1
Read mode : Secure
Utilize accurate stream : Yes
Defeat audio cache : Yes
Make use of C2 pointers : No
Read offset correction : 48
Overread into Lead-In and Lead-Out : No
Fill up missing offset samples with silence : Yes
Delete leading and trailing silent blocks : No
Null samples used in CRC calculations : Yes
Used interface : Native Win32 interface for Win NT & 2000
Used output format : Internal WAV Routines
Sample format : 44.100 Hz; 16 Bit; Stereo
TOC of the extracted CD
Track | Start | Length | Start sector | End sector
---------------------------------------------------------
1 | 0:00.65 | 5:26.17 | 65 | 24531
2 | 5:27.07 | 6:47.60 | 24532 | 55116
3 | 12:14.67 | 6:51.53 | 55117 | 85994
4 | 19:06.45 | 5:46.25 | 85995 | 111969
5 | 24:52.70 | 8:01.30 | 111970 | 148074
6 | 32:54.25 | 7:14.67 | 148075 | 180691
7 | 40:09.17 | 8:10.68 | 180692 | 217509
8 | 48:20.10 | 5:56.27 | 217510 | 244236
9 | 54:16.37 | 3:51.13 | 244237 | 261574
Range status and errors
Selected range
Filename H:\FOS\MY_MUSIC\Jane Ira Bloom\Jane Ira Bloom - Art & Aviation\Jane Ira Bloom - Art & Aviation.wav
Peak level 99.4 %
Range quality 99.9 %
Test CRC 2D6E46E7
Copy CRC 2D6E46E7
Copy OK
No errors occurred
End of status report
 
Содержание индексной карты (.CUE)
REM GENRE Jazz
REM DATE 1992
REM DISCID 7E0D9F09
REM COMMENT "ExactAudioCopy v0.99pb5"
PERFORMER "Jane Ira Bloom"
TITLE "Art & Aviation"
FILE "Jane Ira Bloom - Art & Aviation.wav" WAVE
TRACK 01 AUDIO
TITLE "Gateway to Progress"
PERFORMER "Jane Ira Bloom"
INDEX 00 00:00:00
INDEX 01 00:00:65
TRACK 02 AUDIO
TITLE "Further into the Night"
PERFORMER "Jane Ira Bloom"
INDEX 00 05:26:67
INDEX 01 05:27:07
TRACK 03 AUDIO
TITLE "Hawkins' Parallel Universe"
PERFORMER "Jane Ira Bloom"
INDEX 00 12:13:27
INDEX 01 12:14:67
TRACK 04 AUDIO
TITLE "Straight No Chaser / Miro"
PERFORMER "Jane Ira Bloom"
INDEX 00 19:06:37
INDEX 01 19:06:45
TRACK 05 AUDIO
TITLE "Oshumare"
PERFORMER "Jane Ira Bloom"
INDEX 00 24:52:02
INDEX 01 24:52:70
TRACK 06 AUDIO
TITLE "Art & Aviation"
PERFORMER "Jane Ira Bloom"
INDEX 00 32:53:65
INDEX 01 32:54:25
TRACK 07 AUDIO
TITLE "Most Distant Galaxy ('89-commissioned by NASA)"
PERFORMER "Jane Ira Bloom"
INDEX 00 40:06:57
INDEX 01 40:09:17
TRACK 08 AUDIO
TITLE "I Believe Anita"
PERFORMER "Jane Ira Bloom"
INDEX 00 48:18:67
INDEX 01 48:20:10
TRACK 09 AUDIO
TITLE "Lost in the Stars (dedicated to Ed Blackwell)"
PERFORMER "Jane Ira Bloom"
INDEX 00 54:16:30
INDEX 01 54:16:37
 
Состав
Jane Ira Bloom – soprano saxophone & live electronics
Kenny Wheeler – trumpet, flugelhorn
Ron Horton – trumpet
Kenny Werner – piano
Rufus Reid – bass
Michael Formanek – bass
Jerry Granelli – drums & elektro-acoustic percussion
Any questions -> support@pro-jazz.com. По всем вопросам пишите -> support@pro-jazz.com
13:58
170
Нет комментариев. Ваш будет первым!