Вы используете незарегистрированную версию компонента "Вкладки"!

Поиск

(Avant-Garde / Modern Creative / Contemporary / Free Jazz) Tim Berne's Caos Totale (Steve Swell, Mark Dresser, Bobby Previte etc) - Nice View - 1994, APE (image+.cue) lossless

(Avant-Garde / Modern Creative / Contemporary / Free Jazz) Tim Berne's Caos Totale (Steve Swell, Mark Dresser, Bobby Previte etc) - Nice View - 1994, APE (image+.cue) lossless
Треклист:
Tim Berne's Caos Totale - Nice View
Жанр: Avant-Garde / Modern Creative / Contemporary / Free Jazz
Страна-производитель диска: USA
Год издания диска: 1994
Издатель (лейбл): Polydor K.K. Tokyo, Japan / JMT Productions
Номер по каталогу: JMT 314 514 013-2
Аудио кодек: APE (*.ape)
Тип рипа: image+.cue
Битрейт аудио: lossless
Продолжительность: 01:17:06
Источник (релизер): barin99
Наличие сканов в содержимом раздачи: да
Треклист:
1. It Could Have Been a Lot Worse 21:22
2. The Third Rail 17:40
3. Impacted Wisdom 38:03
Recorded in August 1993 at The Power Station, NYC.
Personnel:
Tim Berne — Sax (Alto)
Herb Robertson — Trumpet
Steve Swell — Trombone
Django Bates — Piano, Horn, Keyboards, Peck Horn
Mark Dresser — Double Bass
Bobby Previte — Drums
Marc Ducret — Guitar
 
Лог создания рипа (EAC Log)
Exact Audio Copy V0.99 prebeta 4 from 23. January 2008
EAC extraction logfile from 8. January 2010, 21:43
Time Berne's Chaos Totale / Nice View
Used drive : HL-DT-STRW/DVD GCC-4242N Adapter: 1 ID: 0
Read mode : Secure
Utilize accurate stream : Yes
Defeat audio cache : Yes
Make use of C2 pointers : No
Read offset correction : 102
Overread into Lead-In and Lead-Out : No
Fill up missing offset samples with silence : Yes
Delete leading and trailing silent blocks : No
Null samples used in CRC calculations : Yes
Used interface : Native Win32 interface for Win NT & 2000
Used output format : Internal WAV Routines
Sample format : 44.100 Hz; 16 Bit; Stereo
TOC of the extracted CD
Track | Start | Length | Start sector | End sector
---------------------------------------------------------
1 | 0:00.00 | 21:22.33 | 0 | 96182
2 | 21:22.33 | 17:40.30 | 96183 | 175712
3 | 39:02.63 | 38:03.67 | 175713 | 347004
Range status and errors
Selected range
Filename C:\_\EAC_Out\Out\Time Berne's Chaos Totale - Nice View\Time Berne's Chaos Totale - Nice View.wav
Peak level 100.0 %
Range quality 100.0 %
Copy CRC 9020C9AA
Copy OK
No errors occurred
AccurateRip summary
Track 1 accurately ripped (confidence 4) [6B5794E7]
Track 2 accurately ripped (confidence 4) [167544DF]
Track 3 accurately ripped (confidence 4) [02DFFF05]
All tracks accurately ripped
End of status report
 
Содержание индексной карты (.CUE)
REM DISCID 1E121203
REM COMMENT "ExactAudioCopy v0.99pb4"
PERFORMER "Tim Berne's Caos Totale"
TITLE "Nice View"
FILE "Tim Berne's Caos Totale - Nice View.ape" WAVE
TRACK 01 AUDIO
TITLE "It Could Have Been A Lot Worse"
PERFORMER "Tim Berne's Caos Totale"
INDEX 01 00:00:00
TRACK 02 AUDIO
TITLE "The Third Rail"
PERFORMER "Tim Berne's Caos Totale"
INDEX 00 21:15:60
INDEX 01 21:22:33
TRACK 03 AUDIO
TITLE "Impacted Wisdom"
PERFORMER "Tim Berne's Caos Totale"
INDEX 00 38:55:10
INDEX 01 39:02:63
 
AMG
Berne calls this band Caos Totale, and if it doesn't quite achieve that lofty goal, it comes close enough to provide a fine mix of rich, involved compositions and lusty, almost rockish, improvisations. One of Berne's songwriting trademarks has been lengthy pieces (often exceeding 30 minutes) with multiple themes that emerge and disappear in an organic but unpredictable way, and this is clearly on view here. Pieces begin in one place but invariably end in another area entirely, but the ride is quite scenic. Berne's band is remarkably strong and imaginative, bolstered for this occasion by Django Bates on keyboards. There a few rhythm teams more powerful than Dresser and Previte, and they propel this ensemble mightily, especially when the groove becomes Mingusian and bluesy which, happily, is often the case. Guitarist Marc Ducret is given the lead much of the time and his noise-oriented playing is the perfect complement to the surging, breathing quality of the pieces. But things always come back to Berne's compositions. Each has its own character, each tells a story and takes as much time as necessary to ensure the story is told with the proper level of detail. In many ways, Berne seems to pick up on groundwork laid by his teacher, the great composer/saxophonist Julius Hemphill, and takes things to the next stage, walking the fine line between deep composition and inspired improvisation. One of Berne's best efforts. ~ Brian Olewnick
 
Back
По всем вопросам пишите личное сообщение пользователю M0p94ok.
14:00
202
Нет комментариев. Ваш будет первым!