Вы используете незарегистрированную версию компонента "Вкладки"!

Поиск

(Contemporary Jazz, Avant-Garde) Jane Ira Bloom - The Nearness - 1996, APE (image+.cue), lossless

(Contemporary Jazz, Avant-Garde) Jane Ira Bloom - The Nearness - 1996, APE (image+.cue), lossless
Треклист:
Jane Ira Bloom / The Nearness
Жанр: Contemporary Jazz, Avant-Garde
Страна-производитель диска: USA
Год издания диска: 1996
Издатель (лейбл): Arabesque Recordings
Номер по каталогу: AJ0120
Аудиокодек: APE (*.ape)
Тип рипа: image+.cue
Битрейт аудио: lossless
Продолжительность: 1:08:14
Источник (релизер): Собственный рип с оригинального диска
Наличие сканов в содержимом раздачи: да
Треклист:
1. nearly Summertime (5:24)
compositions by Jane Ira Bloom / George Gershwin and DuBose Heyward
featuring: Jane Ira Bloom, Kenny Wheeler, Julian Priester, Fred Hersch, Rufus Reid, Bobby Previte
2. Midnight Round / 'Round Midnight (5:39)
compositions by Jane Ira Bloom / Thelonious Monk, Charles Williams, Bernard Hanighen
featuring: Jane Ira Bloom, Kenny Wheeler, Julian Priester, Fred Hersch, Rufus Reid, Bobby Previte
3. b 6 Bop (6:17)
compositions by Jane Ira Bloom
featuring: Jane Ira Bloom, Kenny Wheeler, Julian Priester, Fred Hersch, Rufus Reid, Bobby Previte
4. Midnight's Measure / In The Wee Small Hours Of The Morning (6:19)
compositions by Jane Ira Bloom / Bob Hilliard, David Mann
featuring: Jane Ira Bloom, Fred Hersch, Rufus Reid, Bobby Previte
5. Painting Over Paris (5:57)
compositions by Jane Ira Bloom
featuring: Jane Ira Bloom, Kenny Wheeler, Fred Hersch, Rufus Reid, Bobby Previte
6. Wing Dining (6:47)
compositions by Jane Ira Bloom
featuring: Jane Ira Bloom, Kenny Wheeler, Julian Priester, Rufus Reid, Bobby Previte
7. Panosonic (6:35)
compositions by Jane Ira Bloom
featuring: Jane Ira Bloom, Kenny Wheeler, Julian Priester, Fred Hersch, Rufus Reid, Bobby Previte
8. White Tower (4:09)
compositions by Jane Ira Bloom
featuring: Jane Ira Bloom, Kenny Wheeler, Julian Priester, Fred Hersch, Rufus Reid
9. It's A Corrugated World (5:42)
compositions by Jane Ira Bloom
featuring: Jane Ira Bloom, Kenny Wheeler, Julian Priester, Rufus Reid, Bobby Previte
10. Monk's Tale / The Nearness Of You (3:32)
compositions by Jane Ira Bloom / Hoagy Carmichael, Bed Washington
featuring: Jane Ira Bloom, Kenny Wheeler, Julian Priester, Rufus Reid, Bobby Previte
11. Lonely House (6:49)
compositions by Kurt Weill, Langston Hughes
featuring: Jane Ira Bloom, Fred Hersch, Rufus Reid, Bobby Previte
12. The All-Diesel Kitchen Of Tomorrow (4:07)
compositions by Jane Ira Bloom
featuring: Jane Ira Bloom, Kenny Wheeler, Julian Priester, Fred Hersch, Rufus Reid, Bobby Previte
13. Yonder (:50)
compositions by Jane Ira Bloom
featuring: Jane Ira Bloom, Kenny Wheeler
 
Лог создания рипа
Exact Audio Copy V0.99 prebeta 5 from 4. May 2009
EAC extraction logfile from 26. June 2011, 9:18
Jane Ira Bloom / The Nearness
Used drive : Optiarc DVD RW AD-5200S Adapter: 0 ID: 1
Read mode : Secure
Utilize accurate stream : Yes
Defeat audio cache : Yes
Make use of C2 pointers : No
Read offset correction : 48
Overread into Lead-In and Lead-Out : No
Fill up missing offset samples with silence : Yes
Delete leading and trailing silent blocks : No
Null samples used in CRC calculations : Yes
Used interface : Native Win32 interface for Win NT & 2000
Used output format : Internal WAV Routines
Sample format : 44.100 Hz; 16 Bit; Stereo
TOC of the extracted CD
Track | Start | Length | Start sector | End sector
---------------------------------------------------------
1 | 0:00.00 | 5:24.62 | 0 | 24361
2 | 5:24.62 | 5:39.20 | 24362 | 49806
3 | 11:04.07 | 6:17.08 | 49807 | 78089
4 | 17:21.15 | 6:19.22 | 78090 | 106536
5 | 23:40.37 | 5:57.50 | 106537 | 133361
6 | 29:38.12 | 6:47.63 | 133362 | 163949
7 | 36:26.00 | 6:35.72 | 163950 | 193646
8 | 43:01.72 | 4:09.48 | 193647 | 212369
9 | 47:11.45 | 5:42.32 | 212370 | 238051
10 | 52:54.02 | 3:32.50 | 238052 | 254001
11 | 56:26.52 | 6:49.55 | 254002 | 284731
12 | 63:16.32 | 4:07.18 | 284732 | 303274
13 | 67:23.50 | 0:50.67 | 303275 | 307091
Range status and errors
Selected range
Filename H:\FOS\MY_MUSIC\Jane Ira Bloom\Jane Ira Bloom - The Nearness\Jane Ira Bloom - The Nearness.wav
Peak level 96.6 %
Range quality 100.0 %
Test CRC CA0A7A58
Copy CRC CA0A7A58
Copy OK
No errors occurred
End of status report
 
Содержание индексной карты (.CUE)
REM GENRE "Contemporary Jazz"
REM DATE 1995
REM DISCID C40FFE0D
REM COMMENT "ExactAudioCopy v0.99pb5"
PERFORMER "Jane Ira Bloom"
TITLE "The Nearness"
FILE "Jane Ira Bloom - The Nearness.wav" WAVE
TRACK 01 AUDIO
TITLE "nearly Summertime"
PERFORMER "Jane Ira Bloom"
INDEX 01 00:00:00
TRACK 02 AUDIO
TITLE "Midnight Round / Round Midnight"
PERFORMER "Jane Ira Bloom"
INDEX 01 05:24:62
TRACK 03 AUDIO
TITLE "b6 Bop"
PERFORMER "Jane Ira Bloom"
INDEX 00 11:04:06
INDEX 01 11:04:07
TRACK 04 AUDIO
TITLE "Midnight's Measure / In the Wee Small Hours"
PERFORMER "Jane Ira Bloom"
INDEX 00 17:21:14
INDEX 01 17:21:15
TRACK 05 AUDIO
TITLE "Painting over Paris"
PERFORMER "Jane Ira Bloom"
INDEX 00 23:40:36
INDEX 01 23:40:37
TRACK 06 AUDIO
TITLE "Wing Dining"
PERFORMER "Jane Ira Bloom"
INDEX 00 29:38:11
INDEX 01 29:38:12
TRACK 07 AUDIO
TITLE "Panosonic"
PERFORMER "Jane Ira Bloom"
INDEX 00 36:25:74
INDEX 01 36:26:00
TRACK 08 AUDIO
TITLE "White Tower"
PERFORMER "Jane Ira Bloom"
INDEX 00 43:01:71
INDEX 01 43:01:72
TRACK 09 AUDIO
TITLE "It's a Corrugated World"
PERFORMER "Jane Ira Bloom"
INDEX 00 47:11:44
INDEX 01 47:11:45
TRACK 10 AUDIO
TITLE "Momk's Tale / The Nearness of You"
PERFORMER "Jane Ira Bloom"
INDEX 00 52:54:00
INDEX 01 52:54:02
TRACK 11 AUDIO
TITLE "Lonely House"
PERFORMER "Jane Ira Bloom"
INDEX 00 56:26:51
INDEX 01 56:26:52
TRACK 12 AUDIO
TITLE "The All-Diesel Kitchen of Tomorrow"
PERFORMER "Jane Ira Bloom"
INDEX 00 63:16:31
INDEX 01 63:16:32
TRACK 13 AUDIO
TITLE "Yonder"
PERFORMER "Jane Ira Bloom"
INDEX 00 67:23:49
INDEX 01 67:23:50
 
Состав
Jane Ira Bloom : soprano saxophone
Kenny Wheeler : flugelhorn, trumpet
Julian Priester : trombone, bass trombone
Fred Hersch : piano
Rufus Reid : bass
Bobby Previte : drums
Any questions -> support@pro-jazz.com. По всем вопросам пишите -> support@pro-jazz.com
14:00
147
Нет комментариев. Ваш будет первым!