Поиск

(Brazilian Jazz/Swing/Classic Jazz) Pernambuco & Seu Conjunto - Em Ritmo De Danca - 1957, FLAC (image+.cue), lossless

Треклист:
Pernambuco & Seu Conjunto - Em Ritmo De Danca
Жанр: Brazilian Jazz/Swing/Classic Jazz
Год выпуска диска: 1957
Производитель диска: Polydor - LPNG 4.005 - Brazil
Источник: My CD
Аудио кодек: FLAC
Тип рипа: image+.cue
Битрейт аудио: lossless
Продолжительность: 37:13
Трэклист:
01 - Pois E, Samba (2:38)
02 - You're Sensational (3:08)
03 - O Menino Grande (2:39)
04 - El Cubanchero (3:00)
05 - Historia De Um Amor (3:18)
06 - Requebrando (3:07)
07 - Kalu (3:11)
08 - Tea For Two (3:15)
09 - Ginga De Urubu (3:04)
10 - Folha Morta (3:11)
11 - Begin The Beguine (3:27)
12 - Forro No Limoeiro (2:46)
 
Scans
 
Info
This is Pernambuco e Seu Conjunto - Em Ritmo de Danca (1957), for Polydor, with the well know pistonist Pernambuco delivering piano playing backed by a Conjunto, surprisingly credited by Polydor. You should not take by mistake the percussionist Pernambuco do Pandeiro, also active during the 1950's. Pernambuco was also in charge of arrangements and some organ playing. The conjunto brings important musicians, such like the bassist Luis Marinho and the legendary Brazilian guitarrist Bandeirante.
Personnel
Pernambuco
(piano, organ, arrangements)
Luis Marinho
(bass)
Sutinho
(drums)
Sylvio (Tancredi?)
(vibraphone)
Bandeirante
(electric guitar)
Antonio
(flute)
Pinocchio, Gilberto
(percussion)
 
EAC Лог
Exact Audio Copy V0.99 prebeta 5 from 4. May 2009
EAC extraction logfile from 5. March 2010, 13:31
Pernambuco & Seu Conjunto / Em Ritmo De Dança
Used drive : HL-DT-STDVDRAM GH20NS15 Adapter: 0 ID: 0
Read mode : Secure
Utilize accurate stream : Yes
Defeat audio cache : Yes
Make use of C2 pointers : No
Read offset correction : 667
Overread into Lead-In and Lead-Out : No
Fill up missing offset samples with silence : Yes
Delete leading and trailing silent blocks : No
Null samples used in CRC calculations : Yes
Used interface : Installed external ASPI interface
Used output format : User Defined Encoder
Selected bitrate : 1024 kBit/s
Quality : High
Add ID3 tag : No
Command line compressor : C:\Program Files\Exact Audio Copy\Flac\flac.exe
Additional command line options : -8 -A tukey(0.25) -A gauss(0.1875) -b 4096 -V -T "artist=%a" -T "title=%t" -T "album=%g" -T "date=%y" -T "tracknumber=%n" -T "genre=%m" %s --sector-align
TOC of the extracted CD
Track | Start | Length | Start sector | End sector
---------------------------------------------------------
1 | 0:00.00 | 2:40.49 | 0 | 12048
2 | 2:40.49 | 3:10.30 | 12049 | 26328
3 | 5:51.04 | 2:41.69 | 26329 | 38472
4 | 8:32.73 | 3:02.46 | 38473 | 52168
5 | 11:35.44 | 3:20.11 | 52169 | 67179
6 | 14:55.55 | 3:09.68 | 67180 | 81422
7 | 18:05.48 | 3:13.73 | 81423 | 95970
8 | 21:19.46 | 3:17.37 | 95971 | 110782
9 | 24:37.08 | 3:06.58 | 110783 | 124790
10 | 27:43.66 | 3:13.64 | 124791 | 139329
11 | 30:57.55 | 3:29.25 | 139330 | 155029
12 | 34:27.05 | 2:46.16 | 155030 | 167495
Range status and errors
Selected range
Filename D:\Torrents.ru\Pernambuco & Seu Conjunto\Pernambuco & Seu Conjunto - Em Ritmo De Dança\Pernambuco & Seu Conjunto - Em Ritmo De Dança.wav
Peak level 100.0 %
Range quality 100.0 %
Test CRC 690EA87E
Copy CRC 690EA87E
Copy OK
No errors occurred
End of status report
 
Audiochecker
AUDIOCHECKER v2.0 beta (build 457) - by Dester - opdester@freemail.hu
~~~~~~~~~~~~~~~~~~~~~~~~~~~~~~~~~~
-=== DO NOT EDIT THIS FILE! ===-
Path: ...\Pernambuco & Seu Conjunto - Em Ritmo De Dança
1 -=- Pernambuco & Seu Conjunto - Em Ritmo De Dança.flac -=- CDDA (100%)
226301828
13:34
394
Нет комментариев. Ваш будет первым!