Поиск

(Brazilian Jazz/Classic Jazz/Accordion) Ribamar & Seu Conjunto - Dancando Com Ribamar - 1956, FLAC (image+.cue), lossless

Треклист:
Ribamar & Seu Conjunto - Dancando Com Ribamar
Жанр: Brazilian Jazz/Classic Jazz/Accordion
Год выпуска диска: 1956
Производитель диска: Columbia Do Brasil S.A. - LPCB 35020 - Brazil
Источник: My CD
Аудио кодек: FLAC
Тип рипа: image+.cue
Битрейт аудио: lossless
Продолжительность: 23:00
Трэклист:
01 - Do Re Mi (2:32)
02 - E Tao Sublime O Amor (Love Is A Many Splendored Thing) (2:43)
03 - Autumn In Rome (2:58)
04 - Insinuando (2:58)
05 - Duas Vidas (3:13)
06 - Stranger In Paradise (2:54)
07 - Mambinho (2:44)
08 - Nos Tres (2:40)
 
Scans
 
Info
This is Ribamar - Dancando com Ribamar e Seu Conjunto (1956), for Columbia, featuring the first LP recorded by Ribamar. Ribamar was a very important musician and composer. He made a very famous duo with the Tito Madi, being also a frequent composition partner of Dolores Duran. Dancando com Ribamar e Seu Conjunto features Ribamar playing his first instrument, the accordion. Such like many other accordion players, Ribamar adopted the piano as soon the bossa nova was birth. The repertoire features a blending of Brazilian and international tunes; including two compositions written by Trio Surdina members, Chiquinho do Acordeon, Fafa Lemos and the legendary Garoto. Musicians were not credited by Columbia.
 
EAC Лог
Exact Audio Copy V0.99 prebeta 5 from 4. May 2009
EAC extraction logfile from 5. March 2010, 13:59
Ribamar & Seu Conjunto / Dancando Com Ribamar
Used drive : HL-DT-STDVDRAM GH20NS15 Adapter: 0 ID: 0
Read mode : Secure
Utilize accurate stream : Yes
Defeat audio cache : Yes
Make use of C2 pointers : No
Read offset correction : 667
Overread into Lead-In and Lead-Out : No
Fill up missing offset samples with silence : Yes
Delete leading and trailing silent blocks : No
Null samples used in CRC calculations : Yes
Used interface : Installed external ASPI interface
Used output format : User Defined Encoder
Selected bitrate : 1024 kBit/s
Quality : High
Add ID3 tag : No
Command line compressor : C:\Program Files\Exact Audio Copy\Flac\flac.exe
Additional command line options : -8 -A tukey(0.25) -A gauss(0.1875) -b 4096 -V -T "artist=%a" -T "title=%t" -T "album=%g" -T "date=%y" -T "tracknumber=%n" -T "genre=%m" %s --sector-align
TOC of the extracted CD
Track | Start | Length | Start sector | End sector
---------------------------------------------------------
1 | 0:00.00 | 2:34.48 | 0 | 11597
2 | 2:34.48 | 2:45.23 | 11598 | 23995
3 | 5:19.71 | 3:00.60 | 23996 | 37555
4 | 8:20.56 | 3:00.58 | 37556 | 51113
5 | 11:21.39 | 3:15.32 | 51114 | 65770
6 | 14:36.71 | 2:56.22 | 65771 | 78992
7 | 17:33.18 | 2:46.41 | 78993 | 91483
8 | 20:19.59 | 2:40.61 | 91484 | 103544
Range status and errors
Selected range
Filename D:\Torrents.ru\Ribamar & Seu Conjunto\Ribamar & Seu Conjunto - Dançando Com Ribamar\Ribamar & Seu Conjunto - Dancando Com Ribamar.wav
Peak level 100.0 %
Range quality 99.9 %
Test CRC 9CB1E6FC
Copy CRC 9CB1E6FC
Copy OK
No errors occurred
End of status report
 
Audiochecker
AUDIOCHECKER v2.0 beta (build 457) - by Dester - opdester@freemail.hu
~~~~~~~~~~~~~~~~~~~~~~~~~~~~~~~~~~
-=== DO NOT EDIT THIS FILE! ===-
Path: ...\Ribamar & Seu Conjunto - Dançando Com Ribamar
1 -=- Ribamar & Seu Conjunto - Dancando Com Ribamar.flac -=- CDDA (100%)
148074468
14:34
319
Нет комментариев. Ваш будет первым!