Поиск

(Brazilian Jazz/Swing/Bop) Ed Maciel & Sua Orquestra - Na Onda Vol. 3 - 1967, FLAC (image+.cue), lossless

Треклист:
Ed Maciel & Sua Orquestra - Na Onda Vol. 3
Жанр: Brazilian Jazz/Swing/Bop
Год выпуска диска: 1967
Производитель диска: London Records - LLB 1022 - Brazil
Источник: My CD
Аудио кодек: FLAC
Тип рипа: image+.cue
Битрейт аудио: lossless
Продолжительность: 29:36
Трэклист:
01 - Namoradinha De Um Amigo Meu (2:21)
02 - Winchester Cathedral (2:17)
03 - See You In September (2:16)
04 - Gatinha Manhosa (3:04)
05 - Tijuana Taxi (2:08)
06 - Meu Limao Meu Limoeiro (2:27)
07 - Cheveux Longs Idees Courtes (2:12)
08 - La Poupée Qui Fait Non (2:19)
09 - I've Got You Under My Skin (2:51)
10 - Trini's Tune (1:59)
11 - Black Is Black (3:05)
12 - Got To Get You Into My Life (2:10)
 
Scans
 
Info
This is Ed Maciel e Sua Orquestra - Na Onda Volume 3 (1967), for London, the third out of eleven albums recorded by Ed Maciel and his orchestra, mainly music for dance, very similar to the albums released by Maestro Erlon Chaves’ Banda Veneno Internacional on those nice years. Ed Maciel made a large contribution to Brazilian instrumental music, but little is available about him, except his entry at Enciclopedia Instrumental Brasileira.
 
EAC Лог
Exact Audio Copy V0.99 prebeta 5 from 4. May 2009
EAC extraction logfile from 5. March 2010, 16:14
Ed Maciel & Sua Orquestra / Na Onda Vol. 3
Used drive : HL-DT-STDVDRAM GH20NS15 Adapter: 0 ID: 0
Read mode : Secure
Utilize accurate stream : Yes
Defeat audio cache : Yes
Make use of C2 pointers : No
Read offset correction : 667
Overread into Lead-In and Lead-Out : No
Fill up missing offset samples with silence : Yes
Delete leading and trailing silent blocks : No
Null samples used in CRC calculations : Yes
Used interface : Installed external ASPI interface
Used output format : User Defined Encoder
Selected bitrate : 1024 kBit/s
Quality : High
Add ID3 tag : No
Command line compressor : C:\Program Files\Exact Audio Copy\Flac\flac.exe
Additional command line options : -8 -A tukey(0.25) -A gauss(0.1875) -b 4096 -V -T "artist=%a" -T "title=%t" -T "album=%g" -T "date=%y" -T "tracknumber=%n" -T "genre=%m" %s --sector-align
TOC of the extracted CD
Track | Start | Length | Start sector | End sector
---------------------------------------------------------
1 | 0:00.00 | 2:23.09 | 0 | 10733
2 | 2:23.09 | 2:19.62 | 10734 | 21220
3 | 4:42.71 | 2:18.74 | 21221 | 31644
4 | 7:01.70 | 3:06.10 | 31645 | 45604
5 | 10:08.05 | 2:10.48 | 45605 | 55402
6 | 12:18.53 | 2:29.33 | 55403 | 66610
7 | 14:48.11 | 2:14.13 | 66611 | 76673
8 | 17:02.24 | 2:21.66 | 76674 | 87314
9 | 19:24.15 | 2:53.10 | 87315 | 100299
10 | 22:17.25 | 2:01.10 | 100300 | 109384
11 | 24:18.35 | 3:07.11 | 109385 | 123420
12 | 27:25.46 | 2:10.60 | 123421 | 133230
Range status and errors
Selected range
Filename D:\Torrents.ru\Ed Maciel & Sua Orquestra\Ed Maciel & Sua Orquestra - Na Onda Vol. 3\Ed Maciel & Sua Orquestra - Na Onda Vol. 3.wav
Peak level 100.0 %
Range quality 99.9 %
Test CRC 734FAA03
Copy CRC 734FAA03
Copy OK
No errors occurred
End of status report
 
Audiochecker
AUDIOCHECKER v2.0 beta (build 457) - by Dester - opdester@freemail.hu
~~~~~~~~~~~~~~~~~~~~~~~~~~~~~~~~~~
-=== DO NOT EDIT THIS FILE! ===-
Path: ...\Ed Maciel & Sua Orquestra - Na Onda Vol. 3
1 -=- Ed Maciel & Sua Orquestra - Na Onda Vol. 3.flac -=- CDDA (100%)
10869476
14:35
320
Нет комментариев. Ваш будет первым!