Поиск

(Brazilian Jazz/Big Band/Waltz) Henrique Simonetti & Sua Orquestra - Panorama Musical - 1956, FLAC (image+.cue), lossless

Треклист:
Henrique Simonetti & Sua Orquestra - Panorama Musical
Жанр: Brazilian Jazz/Big Band/Waltz
Год выпуска диска: 1956
Производитель диска: RGE Discos - RLP 001 - Brazil
Источник: PQP Records
Аудио кодек: FLAC
Тип рипа: image+.cue
Битрейт аудио: lossless
Продолжительность: 24:38
Трэклист:
01 - Maringa (4:38)
02 - Eu Sem Maria (4:40)
03 - Saudades De Matao (3:48)
04 - Fim De Semana Em Paqueta (3:31)
05 - Guacyra (3:34)
06 - Feitio de Oracao (4:14)
 
Scans
 
Info
This is Henrique Simonetti - Panorama Musical (1956), for RGE, the first album released by RGE, featuring Maestro Simonetti arrangements for six Brazilian tunes. Just in case you missed, Maestro Simonetti is an Italian musician that came to Brazil in 1941 and became an influential artist until his departure back to his homeland in the mid 1960's. RGE kindly delivers personnel listing with some surprises, including Maestros Waldomiro Lemke and Silvio Tancredi on bass and piano and a surprising participation of Zito Righi at clarinet, credited as Leonardo Righi, which is his real name.
Personnel
Enrico Simonetti
(arrangements, direction)
Clemente Capella, Osvaldo Sbarro, Loris Pinheiro, Hugo di Franco, Roin Peller, Antonio Gianelli, Samuel Gegna, Alfredo Vidal, Dante Migliori, Gino Alfonsi
(violin)
Luiz Valori, Frederico Capella
(cello)
Johanes Olsner, Bela Mori
(viola)
Waldomiro Lemke
(bass)
Heinz Muller
(oboe)
Salvador Cortese
(flute)
Leonardo Righi
(clarinet)
Silvio Tancredi
(piano)
 
EAC Лог
Exact Audio Copy V0.99 prebeta 5 from 4. May 2009
EAC extraction logfile from 5. March 2010, 16:30
Henrique Simonetti & Sua Orquestra / Panorama Musical
Used drive : HL-DT-STDVDRAM GH20NS15 Adapter: 0 ID: 0
Read mode : Secure
Utilize accurate stream : Yes
Defeat audio cache : Yes
Make use of C2 pointers : No
Read offset correction : 667
Overread into Lead-In and Lead-Out : No
Fill up missing offset samples with silence : Yes
Delete leading and trailing silent blocks : No
Null samples used in CRC calculations : Yes
Used interface : Installed external ASPI interface
Used output format : User Defined Encoder
Selected bitrate : 1024 kBit/s
Quality : High
Add ID3 tag : No
Command line compressor : C:\Program Files\Exact Audio Copy\Flac\flac.exe
Additional command line options : -8 -A tukey(0.25) -A gauss(0.1875) -b 4096 -V -T "artist=%a" -T "title=%t" -T "album=%g" -T "date=%y" -T "tracknumber=%n" -T "genre=%m" %s --sector-align
TOC of the extracted CD
Track | Start | Length | Start sector | End sector
---------------------------------------------------------
1 | 0:00.00 | 4:40.40 | 0 | 21039
2 | 4:40.40 | 4:42.49 | 21040 | 42238
3 | 9:23.14 | 3:50.68 | 42239 | 59556
4 | 13:14.07 | 3:33.62 | 59557 | 75593
5 | 16:47.69 | 3:36.28 | 75594 | 91821
6 | 20:24.22 | 4:14.27 | 91822 | 110898
Range status and errors
Selected range
Filename D:\Torrents.ru\Henrique Simonetti & Sua Orquestra\Henrique Simonetti & Sua Orquestra - Panorama Musical\Henrique Simonetti & Sua Orquestra - Panorama Musical.wav
Peak level 100.0 %
Range quality 100.0 %
Test CRC 7C3C1DDD
Copy CRC 7C3C1DDD
Copy OK
No errors occurred
End of status report
 
Audiochecker
AUDIOCHECKER v2.0 beta (build 457) - by Dester - opdester@freemail.hu
~~~~~~~~~~~~~~~~~~~~~~~~~~~~~~~~~~
-=== DO NOT EDIT THIS FILE! ===-
Path: ...\Henrique Simonetti & Sua Orquestra - Panorama Musical
1 -=- Henrique Simonetti & Sua Orquestra - Panorama Musical.flac -=- CDDA (100%)
120915924
13:36
318
Нет комментариев. Ваш будет первым!