Поиск

(Brazilian Jazz/Easy Listening/Cool) Lord Astor & Seu Conjunto - E Danca - 1961, FLAC (image+.cue), lossless

Треклист:
Lord Astor & Seu Conjunto - E Danca
Жанр: Brazilian Jazz/Easy Listening/Cool
Год выпуска диска: 1961
Производитель диска: Imperial Records - IMP 30 025 - Brazil
Источник: My CD
Аудио кодек: FLAC
Тип рипа: image+.cue
Битрейт аудио: lossless
Продолжительность: 36:05
Трэклист:
01 - Agora E Cinza (2:54)
02 - A Noite Do Meu Bem (3:10)
03 - Copacabana (2:30)
04 - Fita Amarela (2:40)
05 - Oh Carol (2:43)
06 - Stardust (3:12)
07 - Este Seu Olhar (2:44)
08 - Feitico Da Vila (2:52)
09 - Dindi (3:52)
10 - The Diary (3:18)
11 - Eu Sei Que Vou Te Amar (3:05)
12 - Laura (2:37)
 
Scans
 
Info
This is Lord Astor e Sua Conjunto - E Danca (1961), for Imperial, the legendary Odeon door sales subsidiary. We know Imperial uses to reissue Odeon albums with another presentation, but so far I could not identify which original Astor Silva release this album belongs. This cover was also used on another Imperial release, Mike Falcao e Seu Conjunto - No Embalo do Samba (1966), which is Walter Wanderley recording with this fake name. Anyway, better stay with the outstanding Astor Silva playing leading a Conjunto -- credited by mistake as an orchestra -- of unknown musicians.
 
EAC Лог
Exact Audio Copy V0.99 prebeta 5 from 4. May 2009
EAC extraction logfile from 5. March 2010, 12:30
Lord Astor & Seu Conjunto / E Danca
Used drive : HL-DT-STDVDRAM GH20NS15 Adapter: 0 ID: 0
Read mode : Secure
Utilize accurate stream : Yes
Defeat audio cache : Yes
Make use of C2 pointers : No
Read offset correction : 667
Overread into Lead-In and Lead-Out : No
Fill up missing offset samples with silence : Yes
Delete leading and trailing silent blocks : No
Null samples used in CRC calculations : Yes
Used interface : Installed external ASPI interface
Used output format : User Defined Encoder
Selected bitrate : 1024 kBit/s
Quality : High
Add ID3 tag : No
Command line compressor : C:\Program Files\Exact Audio Copy\Flac\flac.exe
Additional command line options : -8 -A tukey(0.25) -A gauss(0.1875) -b 4096 -V -T "artist=%a" -T "title=%t" -T "album=%g" -T "date=%y" -T "tracknumber=%n" -T "genre=%m" %s --sector-align
TOC of the extracted CD
Track | Start | Length | Start sector | End sector
---------------------------------------------------------
1 | 0:00.00 | 2:56.09 | 0 | 13208
2 | 2:56.09 | 3:12.63 | 13209 | 27671
3 | 6:08.72 | 2:32.69 | 27672 | 39140
4 | 8:41.66 | 2:42.35 | 39141 | 51325
5 | 11:24.26 | 2:45.23 | 51326 | 63723
6 | 14:09.49 | 3:14.31 | 63724 | 78304
7 | 17:24.05 | 2:46.30 | 78305 | 90784
8 | 20:10.35 | 2:54.69 | 90785 | 103903
9 | 23:05.29 | 3:54.22 | 103904 | 121475
10 | 26:59.51 | 3:20.57 | 121476 | 136532
11 | 30:20.33 | 3:07.33 | 136533 | 150590
12 | 33:27.66 | 2:37.74 | 150591 | 162439
Range status and errors
Selected range
Filename D:\Torrents.ru\Lord Astor & Seu Conjunto\Lord Astor & Seu Conjunto - E Danca\Lord Astor & Seu Conjunto - E Danca.wav
Peak level 100.0 %
Range quality 100.0 %
Test CRC 4E7F4C4A
Copy CRC 4E7F4C4A
Copy OK
No errors occurred
End of status report
 
Audiochecker
AUDIOCHECKER v2.0 beta (build 457) - by Dester - opdester@freemail.hu
~~~~~~~~~~~~~~~~~~~~~~~~~~~~~~~~~~
-=== DO NOT EDIT THIS FILE! ===-
Path: ...\Lord Astor & Seu Conjunto - E Danca
1 -=- Lord Astor & Seu Conjunto - E Danca.flac -=- CDDA (100%)
171763732
14:33
378
Нет комментариев. Ваш будет первым!