Поиск

1960 Elizete Cardoso & Moacyr Silva - Sax-Voz {Universal CLP 11157} [CD]

1960 Elizete Cardoso & Moacyr Silva - Sax-Voz {Universal CLP 11157} [CD]
Издатель (лейбл):
Треклист:
01 - Quem Sou Eu (2:46)
02 - La Barca (2:52)
03 - Achados E Perdidos (3:27)
04 - Dizem Por Ai (2:53)
05 - O Amor E A Rosa (2:52)
06 - I Surrender Dear (2:18)
07 - A Cancao Dos Seus Olhos (3:27)
08 - Meditacao (2:35)
09 - Mulata Assanhada (2:14)
10 - Esperame (2:52)
11 - E Facil Dizer Adeus (2:27)
12 - Can't I (2:32)
13 - Onde Andara Minha Saudade (3:24)
14 - Pretty Blue Eyes (2:36)
Состав:
  • Moacyr Silva (sax tenor)
  • Aurino (sax baritone)
  • Chaim Lewak (piano)
  • Edmundo Maciel (trombone)
  • Geraldo Barbosa, Raul Marques, Rubens Bassini (percussion)
  • Jorge Marinho (bass)
  • Julinho Barbosa (trumpet)
  • Paulinho Baterista (drums)
  • Paulo Moura (clarinet, sax alto)
  • Waltel Branco (guitar)
  • Maestro Pachequinho (arrangements)
Лог создания рипа
Exact Audio Copy V0.99 prebeta 5 from 4. May 2009
EAC extraction logfile from 5. March 2010, 11:27
Elizeth Cardoso & Moacyr Silva / Sax Voz
Used drive : HL-DT-STDVDRAM GH20NS15 Adapter: 0 ID: 0
Read mode : Secure
Utilize accurate stream : Yes
Defeat audio cache : Yes
Make use of C2 pointers : No
Read offset correction : 667
Overread into Lead-In and Lead-Out : No
Fill up missing offset samples with silence : Yes
Delete leading and trailing silent blocks : No
Null samples used in CRC calculations : Yes
Used interface : Installed external ASPI interface
Used output format : User Defined Encoder
Selected bitrate : 1024 kBit/s
Quality : High
Add ID3 tag : No
Command line compressor : C:\Program Files\Exact Audio Copy\Flac\flac.exe
Additional command line options : -8 -A tukey(0.25) -A gauss(0.1875) -b 4096 -V -T "artist=%a" -T "title=%t" -T "album=%g" -T "date=%y" -T "tracknumber=%n" -T "genre=%m" %s --sector-align
TOC of the extracted CD
Track | Start | Length | Start sector | End sector
---------------------------------------------------------
1 | 0:00.00 | 2:48.34 | 0 | 12633
2 | 2:48.34 | 2:54.18 | 12634 | 25701
3 | 5:42.52 | 3:29.44 | 25702 | 41420
4 | 9:12.21 | 2:55.04 | 41421 | 54549
5 | 12:07.25 | 2:54.02 | 54550 | 67601
6 | 15:01.27 | 2:20.32 | 67602 | 78133
7 | 17:21.59 | 3:29.41 | 78134 | 93849
8 | 20:51.25 | 2:37.30 | 93850 | 105654
9 | 23:28.55 | 2:16.32 | 105655 | 115886
10 | 25:45.12 | 2:54.45 | 115887 | 128981
11 | 28:39.57 | 2:29.21 | 128982 | 140177
12 | 31:09.03 | 2:34.09 | 140178 | 151736
13 | 33:43.12 | 3:26.20 | 151737 | 167206
14 | 37:09.32 | 2:36.02 | 167207 | 178908
Range status and errors
Selected range
Filename D:\Torrents.ru\Elizeth Cardoso & Moacyr Silva\Elizeth Cardoso & Moacyr Silva - Sax Voz\Elizeth Cardoso & Moacyr Silva - Sax Voz.wav
Peak level 100.0 %
Range quality 100.0 %
Test CRC 7ABDBB0C
Copy CRC 7ABDBB0C
Copy OK
No errors occurred
End of status report
Лог проверки качества
AUDIOCHECKER v2.0 beta (build 457) - by Dester - opdester@freemail.hu
~~~~~~~~~~~~~~~~~~~~~~~~~~~~~~~~~~
-=== DO NOT EDIT THIS FILE! ===-
Path: ...\Elizeth Cardoso & Moacyr Silva - Sax Voz
1 -=- Elizeth Cardoso & Moacyr Silva - Sax Voz.flac -=- CDDA (100%)
176816324
14:32
600
Нет комментариев. Ваш будет первым!