Поиск

(Bossa Nova/Brazilian Jazz/Vocal Jazz) Maria Creuza - Poetico, Um Tributo A Vinicius De Moraes - 1982, FLAC (image+.cue), lossless

Треклист:
Maria Creuza - Poetico, Um Tributo A Vinicius De Moraes
Жанр: Bossa Nova/Brazilian Jazz/Vocal Jazz
Год выпуска диска: 1982
Производитель диска: RCA - 710 0523 - Brazil
Источник: My CD
Аудио кодек: FLAC
Тип рипа: image+.cue
Битрейт аудио: lossless
Продолжительность: 38:43
Трэклист:
01 - Chora Coracao (2:29)
02 - Tarde Em Itapoa (3:44)
03 - Agua De Beber (2:38)
04 - Lamento (2:52)
05 - Rancho Das Namoradas (1:58)
06 - Valsinha (2:08)
07 - Cancao Do Amor Ausente (2:51)
08 - Marcha Da Quarta-Feira De Cinzas (3:24)
09 - Berimbau (2:35)
10 - Samba De Orly (2:33)
11 - Cancao Do Amanhecer (3:17)
12 - Sem Mais Adeus (1:45)
13 - Garota De Ipanema (3:13)
14 - Cancao De Ninar Meu Bem (1:55)
 
Scans
 
Info
This is Maria Creuza – Poetico (1982), for RCA, a tribute to Vinicius de Moraes, featuring only Vinicius de Moraes compositions, performed by Maria Creuza, a singer strongly influenced by Vinicius de Moraes, with several albums released with Vinicius, including the legendary live performances available on recording, such as “La Fusa”, recorded in Argentina. Let’s celebrate and remember Vinicius de Moraes.
Personnel
Wagner Tiso
(arrangements, conduction, keyboards)
Luiz Alves, Zeca Assumpcao, Paulo Russo
(bass)
Robertinho Silva, Nene, Teo Lima, Wilson das Neves
(drums, percussion)
Ricardo Silveira
(guitar)
Arthur Verocai
(violao)
Mauro Senise, Nivaldo Ornellas
(sax, flute)
Rildo Hora
(harmonica)
Helvius Villela
(piano)
Ricky
(oberhein)
Milton Manhaes
(percussion)
Rafael Rabello
(violao 7 cordas)
Luciana Rabello
(cavaquinho)
Joel do Nascimento
(bandolim)
Gilberto D'Avila
(pandeiro)
 
EAC Лог
Exact Audio Copy V0.99 prebeta 5 from 4. May 2009
EAC extraction logfile from 4. March 2010, 16:22
Maria Creuza / Poetico, Um Tributo A Vinicius De Moraes
Used drive : HL-DT-STDVDRAM GH20NS15 Adapter: 0 ID: 0
Read mode : Secure
Utilize accurate stream : Yes
Defeat audio cache : Yes
Make use of C2 pointers : No
Read offset correction : 667
Overread into Lead-In and Lead-Out : No
Fill up missing offset samples with silence : Yes
Delete leading and trailing silent blocks : No
Null samples used in CRC calculations : Yes
Used interface : Installed external ASPI interface
Used output format : User Defined Encoder
Selected bitrate : 1024 kBit/s
Quality : High
Add ID3 tag : No
Command line compressor : C:\Program Files\Exact Audio Copy\Flac\flac.exe
Additional command line options : -8 -A tukey(0.25) -A gauss(0.1875) -b 4096 -V -T "artist=%a" -T "title=%t" -T "album=%g" -T "date=%y" -T "tracknumber=%n" -T "genre=%m" %s --sector-align
TOC of the extracted CD
Track | Start | Length | Start sector | End sector
---------------------------------------------------------
1 | 0:00.00 | 2:35.32 | 0 | 11656
2 | 2:35.32 | 3:50.40 | 11657 | 28946
3 | 6:25.72 | 2:44.19 | 28947 | 41265
4 | 9:10.16 | 2:58.13 | 41266 | 54628
5 | 12:08.29 | 2:04.46 | 54629 | 63974
6 | 14:13.00 | 2:14.13 | 63975 | 74037
7 | 16:27.13 | 2:57.05 | 74038 | 87317
8 | 19:24.18 | 3:30.50 | 87318 | 103117
9 | 22:54.68 | 2:40.66 | 103118 | 115183
10 | 25:35.59 | 2:39.08 | 115184 | 127116
11 | 28:14.67 | 3:23.29 | 127117 | 142370
12 | 31:38.21 | 1:51.33 | 142371 | 150728
13 | 33:29.54 | 3:19.00 | 150729 | 165653
14 | 36:48.54 | 1:55.04 | 165654 | 174282
Range status and errors
Selected range
Filename D:\Torrents.ru\Maria Creuza\Maria Creuza - Poetico, Um Tributo A Vinicius De Moraes\Maria Creuza - Poetico, Um Tributo A Vinicius De Moraes.wav
Peak level 100.0 %
Range quality 99.9 %
Test CRC BB1B0B42
Copy CRC BB1B0B42
Copy OK
No errors occurred
End of status report
 
Audiochecker
AUDIOCHECKER v2.0 beta (build 457) - by Dester - opdester@freemail.hu
~~~~~~~~~~~~~~~~~~~~~~~~~~~~~~~~~~
-=== DO NOT EDIT THIS FILE! ===-
Path: ...\Maria Creuza - Poetico, Um Tributo A Vinicius De Moraes
1 -=- Maria Creuza - Poetico, Um Tributo A Vinicius De Moraes.flac -=- CDDA (100%)
191930596
14:32
413
Нет комментариев. Ваш будет первым!