Поиск

(Brazilian Jazz, Vocal Jazz) Jane Duboc - Languidez - 1980 (2003), FLAC (image+.cue), lossless

(Brazilian Jazz, Vocal Jazz) Jane Duboc - Languidez - 1980 (2003), FLAC (image+.cue), lossless
Треклист:
Jane Duboc - Languidez
Жанр: Brazilian Jazz, Vocal Jazz
Страна-производитель диска: Бразилия
Год издания: 1980 (2003)
Издатель (лейбл): JAM Music/Ouver Entertainment
Номер по каталогу: JM 0028 (06061180-2)
Аудиокодек: FLAC (*.flac)
Тип рипа: image+.cue
Битрейт аудио: lossless
Продолжительность: 40:49
Источник (релизер): диск из моей коллекции
Наличие сканов в содержимом раздачи: да
Треклист:
01. Que Outro Dia Amanheca (3:18)
02. Cachoeira (3:02)
03. Menino (2:52)
04. Manuel, o Audaz (3:43)
05. Estrela do Mar (2:43)
06. Meu Homem (3:29)
07. Languidez (3:31)
08. Para-Raio (2:22)
09. Saudade (2:51)
10. Avesso do Avesso (4:42)
11. Bonita (3:49)
12. Paisagem Latina (4:26)
Состав:
Djavan, Toninho Horta, Osvaldo Montenegro, Marcio Montarroyos, Helio Delmiro, Luis Avelar, etc.
 
Лог создания рипа
Exact Audio Copy V1.0 beta 3 from 29. August 2011
EAC extraction logfile from 22. May 2013, 20:15
Jane Duboc / Languidez
Used drive : ASUS DRW-24B1LT Adapter: 5 ID: 1
Read mode : Secure
Utilize accurate stream : Yes
Defeat audio cache : Yes
Make use of C2 pointers : No
Read offset correction : 6
Overread into Lead-In and Lead-Out : No
Fill up missing offset samples with silence : Yes
Delete leading and trailing silent blocks : No
Null samples used in CRC calculations : Yes
Used interface : Native Win32 interface for Win NT & 2000
Used output format : User Defined Encoder
Selected bitrate : 768 kBit/s
Quality : High
Add ID3 tag : No
Command line compressor : C:\Program Files\Exact Audio Copy\Flac\flac.exe
Additional command line options : -8 -V -T "ARTIST=%artist%" -T "TITLE=%title%" -T "ALBUM=%albumtitle%" -T "DATE=%year%" -T "TRACKNUMBER=%tracknr%" -T "TOTALTRACKS=%numtracks%" -T "GENRE=%genre%" -T "ALBUMARTIST=%albumartist%" -T "ALBUM ARTIST=%albumartist%" -T "COMMENT=EAC Secure Mode, Test & Copy, AccurateRip, FLAC -8" %source%
TOC of the extracted CD
Track | Start | Length | Start sector | End sector
---------------------------------------------------------
1 | 0:00.00 | 3:18.37 | 0 | 14886
2 | 3:18.37 | 3:01.40 | 14887 | 28501
3 | 6:20.02 | 2:52.08 | 28502 | 41409
4 | 9:12.10 | 3:43.25 | 41410 | 58159
5 | 12:55.35 | 2:43.31 | 58160 | 70415
6 | 15:38.66 | 3:28.51 | 70416 | 86066
7 | 19:07.42 | 3:30.53 | 86067 | 101869
8 | 22:38.20 | 2:21.69 | 101870 | 112513
9 | 25:00.14 | 2:50.59 | 112514 | 125322
10 | 27:50.73 | 4:42.27 | 125323 | 146499
11 | 32:33.25 | 3:49.01 | 146500 | 163675
12 | 36:22.26 | 4:26.15 | 163676 | 183640
Range status and errors
Selected range
Filename F:\audio\Jane Duboc - Languidez.wav
Peak level 100.0 %
Extraction speed 5.3 X
Range quality 100.0 %
Test CRC 4C41A2E9
Copy CRC 4C41A2E9
Copy OK
No errors occurred
AccurateRip summary
Track 1 not present in database
Track 2 not present in database
Track 3 not present in database
Track 4 not present in database
Track 5 not present in database
Track 6 not present in database
Track 7 not present in database
Track 8 not present in database
Track 9 not present in database
Track 10 not present in database
Track 11 not present in database
Track 12 not present in database
None of the tracks are present in the AccurateRip database
End of status report
---- CUETools DB Plugin V2.1.3
[CTDB TOCID: IGfclMgFRo0SkzR_opOKC.pNlME-] found, Submit result: already submitted
[e69bff67] (2/2) Accurately ripped
==== Log checksum F9E422A5DAF7D757C1D6FFAF017356ED0ACBAD8DF73A50AE75EF611AD959019B ====
 
Содержание индексной карты (.CUE)
REM GENRE Jazz
REM DATE 1980
REM DISCID 9509900C
REM COMMENT "ExactAudioCopy v1.0b3"
PERFORMER "Jane Duboc"
TITLE "Languidez"
FILE "Jane Duboc - Languidez.wav" WAVE
TRACK 01 AUDIO
TITLE "Que Outro Dia Amanheca"
PERFORMER "Jane Duboc"
INDEX 01 00:00:00
TRACK 02 AUDIO
TITLE "Cachoeira"
PERFORMER "Jane Duboc"
INDEX 01 03:18:37
TRACK 03 AUDIO
TITLE "Menino"
PERFORMER "Jane Duboc"
INDEX 01 06:20:02
TRACK 04 AUDIO
TITLE "Manuel, o Audaz"
PERFORMER "Jane Duboc"
INDEX 01 09:12:10
TRACK 05 AUDIO
TITLE "Estrela do Mar"
PERFORMER "Jane Duboc"
INDEX 01 12:55:35
TRACK 06 AUDIO
TITLE "Meu Homem"
PERFORMER "Jane Duboc"
INDEX 01 15:38:66
TRACK 07 AUDIO
TITLE "Languidez"
PERFORMER "Jane Duboc"
INDEX 01 19:07:42
TRACK 08 AUDIO
TITLE "Para-Raio"
PERFORMER "Jane Duboc"
INDEX 01 22:38:20
TRACK 09 AUDIO
TITLE "Saudade"
PERFORMER "Jane Duboc"
INDEX 01 25:00:14
TRACK 10 AUDIO
TITLE "Avesso do Avesso"
PERFORMER "Jane Duboc"
INDEX 01 27:50:73
TRACK 11 AUDIO
TITLE "Bonita"
PERFORMER "Jane Duboc"
INDEX 01 32:33:25
TRACK 12 AUDIO
TITLE "Paisagem Latina"
PERFORMER "Jane Duboc"
INDEX 01 36:22:26
"Languidez" - дебютный альбом бразильской исполнительницы Джейн Дюбок, выпущенный в 1980 году. Ремастированная версия альбома вышла в 2003 году.
12:03
265
Нет комментариев. Ваш будет первым!