Поиск

(Brazilian Jazz, Vocal Jazz) Jane Duboc - From Brazil to Japan - 1996, FLAC (image+.cue), lossless

(Brazilian Jazz, Vocal Jazz) Jane Duboc - From Brazil to Japan - 1996, FLAC (image+.cue), lossless
Треклист:
Jane Duboc - From Brazil to Japan
Жанр: Brazilian Jazz, Vocal Jazz
Страна-производитель диска: Бразилия
Год издания: 1996
Издатель (лейбл): Movieplay Brasil
Номер по каталогу: BS 270
Аудиокодек: FLAC (*.flac)
Тип рипа: image+.cue
Битрейт аудио: lossless
Продолжительность: 46:57
Источник (релизер): диск из моей коллекции
Наличие сканов в содержимом раздачи: да
Треклист:
01. Alguem Cantando 1 (0:44)
02. Manha de Carnaval (3:45)
03. Camisa Amarela (2:14)
04. Alguem Cantando 2 (0:32)
05. Vassourinhas (3:09)
06. Se Todos Fossem Iguais a Voce (2:29)
07. Alguem Cantando 3 (0:22)
08. Fotografia (2:54)
09. Doce de Coco (4:08)
10. Alguem Cantando 4 (0:34)
11. Joao e Maria (2:49)
12. Juazeiro (2:56)
13. Curare (2:59)
14. Alguem Cantando 5 (0:43)
15. Rio (3:04)
16. Anda Luzia/As Pastorinhas (4:32)
17. Balanco Zona Sul (3:58)
18. Pisa na Fulo (3:14)
19. Alguem Cantando Final (1:51)
 
Лог создания рипа
Exact Audio Copy V1.0 beta 3 from 29. August 2011
EAC extraction logfile from 22. May 2013, 21:44
Jane Duboc / From Brazil to Japan
Used drive : ASUS DRW-24B1LT Adapter: 5 ID: 1
Read mode : Secure
Utilize accurate stream : Yes
Defeat audio cache : Yes
Make use of C2 pointers : No
Read offset correction : 6
Overread into Lead-In and Lead-Out : No
Fill up missing offset samples with silence : Yes
Delete leading and trailing silent blocks : No
Null samples used in CRC calculations : Yes
Used interface : Native Win32 interface for Win NT & 2000
Used output format : User Defined Encoder
Selected bitrate : 768 kBit/s
Quality : High
Add ID3 tag : No
Command line compressor : C:\Program Files\Exact Audio Copy\Flac\flac.exe
Additional command line options : -8 -V -T "ARTIST=%artist%" -T "TITLE=%title%" -T "ALBUM=%albumtitle%" -T "DATE=%year%" -T "TRACKNUMBER=%tracknr%" -T "TOTALTRACKS=%numtracks%" -T "GENRE=%genre%" -T "ALBUMARTIST=%albumartist%" -T "ALBUM ARTIST=%albumartist%" -T "COMMENT=EAC Secure Mode, Test & Copy, AccurateRip, FLAC -8" %source%
TOC of the extracted CD
Track | Start | Length | Start sector | End sector
---------------------------------------------------------
1 | 0:00.00 | 0:43.53 | 0 | 3277
2 | 0:43.53 | 3:45.25 | 3278 | 20177
3 | 4:29.03 | 2:13.55 | 20178 | 30207
4 | 6:42.58 | 0:32.29 | 30208 | 32636
5 | 7:15.12 | 3:08.57 | 32637 | 46793
6 | 10:23.69 | 2:28.54 | 46794 | 57947
7 | 12:52.48 | 0:21.64 | 57948 | 59586
8 | 13:14.37 | 2:54.23 | 59587 | 72659
9 | 16:08.60 | 4:07.57 | 72660 | 91241
10 | 20:16.42 | 0:34.25 | 91242 | 93816
11 | 20:50.67 | 2:48.52 | 93817 | 106468
12 | 23:39.44 | 2:56.19 | 106469 | 119687
13 | 26:35.63 | 2:58.68 | 119688 | 133105
14 | 29:34.56 | 0:42.73 | 133106 | 136328
15 | 30:17.54 | 3:03.55 | 136329 | 150108
16 | 33:21.34 | 4:32.25 | 150109 | 170533
17 | 37:53.59 | 3:57.53 | 170534 | 188361
18 | 41:51.37 | 3:14.04 | 188362 | 202915
19 | 45:05.41 | 1:51.05 | 202916 | 211245
Range status and errors
Selected range
Filename F:\audio\Jane Duboc - From Brazil to Japan.wav
Peak level 94.4 %
Extraction speed 5.5 X
Range quality 100.0 %
Test CRC FD947F56
Copy CRC FD947F56
Copy OK
No errors occurred
AccurateRip summary
Track 1 accurately ripped (confidence 2) [84723372] (AR v1)
Track 2 accurately ripped (confidence 2) [787EAD82] (AR v1)
Track 3 accurately ripped (confidence 2) [FF5EEE33] (AR v1)
Track 4 accurately ripped (confidence 2) [28BB7AC3] (AR v1)
Track 5 accurately ripped (confidence 2) [4B376889] (AR v1)
Track 6 accurately ripped (confidence 2) [3F3DEF19] (AR v1)
Track 7 accurately ripped (confidence 2) [524609E2] (AR v1)
Track 8 accurately ripped (confidence 2) [3ABBED6F] (AR v1)
Track 9 accurately ripped (confidence 2) [10BB1ACD] (AR v1)
Track 10 accurately ripped (confidence 2) [02119A62] (AR v1)
Track 11 accurately ripped (confidence 2) [C0337638] (AR v1)
Track 12 accurately ripped (confidence 2) [EFD26EDF] (AR v1)
Track 13 accurately ripped (confidence 2) [41DC759C] (AR v1)
Track 14 accurately ripped (confidence 2) [ACF342E0] (AR v1)
Track 15 accurately ripped (confidence 2) [928BD071] (AR v1)
Track 16 accurately ripped (confidence 2) [7A38B162] (AR v1)
Track 17 accurately ripped (confidence 2) [DF0A3FC8] (AR v1)
Track 18 accurately ripped (confidence 2) [15EA5176] (AR v1)
Track 19 accurately ripped (confidence 2) [277726DE] (AR v1)
All tracks accurately ripped
End of status report
---- CUETools DB Plugin V2.1.3
[CTDB TOCID: UamS7Z5ZR86quAhTtg8GNAMDBBE-] found, Submit result: already submitted
[d87e6993] (1/1) Accurately ripped
==== Log checksum 20A9493FEDD6138E2889A6647200DFE5E111B27FC34B8A6A8B5702B0FEC7C6EE ====
 
Содержание индексной карты (.CUE)
REM GENRE Jazz
REM DATE 1996
REM DISCID FC0B0013
REM COMMENT "ExactAudioCopy v1.0b3"
PERFORMER "Jane Duboc"
TITLE "From Brazil to Japan"
FILE "Jane Duboc - From Brazil to Japan.wav" WAVE
TRACK 01 AUDIO
TITLE "Alguem Cantando 1"
PERFORMER "Jane Duboc"
INDEX 01 00:00:00
TRACK 02 AUDIO
TITLE "Manha de Carnaval"
PERFORMER "Jane Duboc"
INDEX 00 00:42:19
INDEX 01 00:43:53
TRACK 03 AUDIO
TITLE "Camisa Amarela"
PERFORMER "Jane Duboc"
INDEX 00 04:27:45
INDEX 01 04:29:03
TRACK 04 AUDIO
TITLE "Alguem Cantando 2"
PERFORMER "Jane Duboc"
INDEX 00 06:41:23
INDEX 01 06:42:58
TRACK 05 AUDIO
TITLE "Vassourinhas"
PERFORMER "Jane Duboc"
INDEX 00 07:13:52
INDEX 01 07:15:12
TRACK 06 AUDIO
TITLE "Se Todos Fossem Iguais a Voce"
PERFORMER "Jane Duboc"
INDEX 00 10:22:34
INDEX 01 10:23:69
TRACK 07 AUDIO
TITLE "Alguem Cantando 3"
PERFORMER "Jane Duboc"
INDEX 00 12:51:13
INDEX 01 12:52:48
TRACK 08 AUDIO
TITLE "Fotografia"
PERFORMER "Jane Duboc"
INDEX 00 13:13:02
INDEX 01 13:14:37
TRACK 09 AUDIO
TITLE "Doce de Coco"
PERFORMER "Jane Duboc"
INDEX 00 16:07:27
INDEX 01 16:08:60
TRACK 10 AUDIO
TITLE "Alguem Cantando 4"
PERFORMER "Jane Duboc"
INDEX 00 20:15:08
INDEX 01 20:16:42
TRACK 11 AUDIO
TITLE "Joao e Maria"
PERFORMER "Jane Duboc"
INDEX 00 20:49:33
INDEX 01 20:50:67
TRACK 12 AUDIO
TITLE "Juazeiro"
PERFORMER "Jane Duboc"
INDEX 00 23:38:13
INDEX 01 23:39:44
TRACK 13 AUDIO
TITLE "Curare"
PERFORMER "Jane Duboc"
INDEX 00 26:34:28
INDEX 01 26:35:63
TRACK 14 AUDIO
TITLE "Alguem Cantando 5"
PERFORMER "Jane Duboc"
INDEX 00 29:33:26
INDEX 01 29:34:56
TRACK 15 AUDIO
TITLE "Rio"
PERFORMER "Jane Duboc"
INDEX 00 30:16:19
INDEX 01 30:17:54
TRACK 16 AUDIO
TITLE "Anda Luzia/As Pastorinhas"
PERFORMER "Jane Duboc"
INDEX 00 33:20:04
INDEX 01 33:21:34
TRACK 17 AUDIO
TITLE "Balanco Zona Sul"
PERFORMER "Jane Duboc"
INDEX 00 37:52:29
INDEX 01 37:53:59
TRACK 18 AUDIO
TITLE "Pisa na Fulo"
PERFORMER "Jane Duboc"
INDEX 00 41:50:02
INDEX 01 41:51:37
TRACK 19 AUDIO
TITLE "Alguem Cantando Final"
PERFORMER "Jane Duboc"
INDEX 00 45:04:12
INDEX 01 45:05:41
Альбом был записан в Японии, где Джейн Дюбок находилась на гастролях.
11:04
330
Нет комментариев. Ваш будет первым!