Поиск

(Brazilian Jazz, Bossa Nova, Vocal Jazz, World Fusion) Bïa (Bia Krieger) - Nocturno - 2008, FLAC (tracks+.cue), lossless

Треклист:
Bïa - Nocturno
Жанр: Brazilian Jazz, Bossa Nova, Vocal Jazz, World Fusion
Год выпуска диска: 2008
Аудио кодек: FLAC
Тип рипа: tracks+.cue
Битрейт аудио: lossless
Продолжительность: 0:49:03
Трэклист:
01. Feio (4:10)
02. Caminhar (3:20)
03. Nocturno (1:52)
04. Venha (3:14)
05. Personne with Thomas Hellman (3:47)
06. Vento (4:17)
07. Momento de Graça (1:52)
08. Sombres (0:59)
09. Revolta (3:33)
10. Coffee In Bed (1:25)
11. Madalena (3:07)
12. Los Hermanos with Lhasa De Sela (3:27)
13. Exil (5:04)
14. Foi a Flor (3:48)
15. Mes Zaricots (5:10)
 
EAC log
Exact Audio Copy V0.99 prebeta 5 from 4. May 2009
EAC extraction logfile from 4. January 2010, 20:26
Bia / Nocturno
Used drive : LITE-ON DVDRW SOHW-832S Adapter: 2 ID: 0
Read mode : Secure
Utilize accurate stream : Yes
Defeat audio cache : Yes
Make use of C2 pointers : No
Read offset correction : 12
Overread into Lead-In and Lead-Out : No
Fill up missing offset samples with silence : Yes
Delete leading and trailing silent blocks : No
Null samples used in CRC calculations : Yes
Used interface : Native Win32 interface for Win NT & 2000
Gap handling : Appended to previous track
Used output format : User Defined Encoder
Selected bitrate : 128 kBit/s
Quality : High
Add ID3 tag : No
Command line compressor : C:\Program Files\Exact Audio Copy\Flac\flac.exe
Additional command line options : -V -8 -T "artist=%a" -T "title=%t" -T "album=%g" -T "date=%y" -T "tracknumber=%n" -T "genre=%m" %s
TOC of the extracted CD
Track | Start | Length | Start sector | End sector
---------------------------------------------------------
1 | 0:00.00 | 4:10.09 | 0 | 18758
2 | 4:10.09 | 3:19.55 | 18759 | 33738
3 | 7:29.64 | 1:52.29 | 33739 | 42167
4 | 9:22.18 | 3:13.54 | 42168 | 56696
5 | 12:35.72 | 3:46.56 | 56697 | 73702
6 | 16:22.53 | 4:16.66 | 73703 | 92968
7 | 20:39.44 | 1:52.34 | 92969 | 101402
8 | 22:32.03 | 0:58.43 | 101403 | 105795
9 | 23:30.46 | 3:32.46 | 105796 | 121741
10 | 27:03.17 | 1:24.71 | 121742 | 128112
11 | 28:28.13 | 3:06.51 | 128113 | 142113
12 | 31:34.64 | 3:27.29 | 142114 | 157667
13 | 35:02.18 | 5:03.71 | 157668 | 180463
14 | 40:06.14 | 3:48.14 | 180464 | 197577
15 | 43:54.28 | 5:09.39 | 197578 | 220791
16 | 51:35.67 | 6:36.61 | 232192 | 261952
Track 1
Filename Bia - Nocturno (2008)\01 - Feio.wav
Pre-gap length 0:00:02.00
Peak level 98.9 %
Track quality 100.0 %
Test CRC 0D793CF3
Copy CRC 0D793CF3
Accurately ripped (confidence 2) [9B10BF6B]
Copy OK
Track 2
Filename Bia - Nocturno (2008)\02 - Caminhar.wav
Peak level 99.9 %
Track quality 100.0 %
Test CRC 48B97A3F
Copy CRC 48B97A3F
Accurately ripped (confidence 2) [1BA1AC5B]
Copy OK
Track 3
Filename Bia - Nocturno (2008)\03 - Nocturno.wav
Peak level 86.1 %
Track quality 100.0 %
Test CRC EB2D5029
Copy CRC EB2D5029
Accurately ripped (confidence 2) [A7A81558]
Copy OK
Track 4
Filename Bia - Nocturno (2008)\04 - Venha.wav
Peak level 85.4 %
Track quality 100.0 %
Test CRC 71A341CC
Copy CRC 71A341CC
Track not present in AccurateRip database
Copy OK
Track 5
Filename Bia - Nocturno (2008)\05 - Personne with Thomas Hellman.wav
Peak level 99.9 %
Track quality 100.0 %
Test CRC 4586FBBC
Copy CRC 4586FBBC
Track not present in AccurateRip database
Copy OK
Track 6
Filename Bia - Nocturno (2008)\06 - Vento.wav
Peak level 85.5 %
Track quality 100.0 %
Test CRC B3B3CE0A
Copy CRC B3B3CE0A
Accurately ripped (confidence 2) [64C1FF68]
Copy OK
Track 7
Filename Bia - Nocturno (2008)\07 - Momento de Graзa.wav
Peak level 88.9 %
Track quality 100.0 %
Test CRC C7DBDA52
Copy CRC C7DBDA52
Accurately ripped (confidence 2) [4F4369DB]
Copy OK
Track 8
Filename Bia - Nocturno (2008)\08 - Sombres.wav
Peak level 85.2 %
Track quality 100.0 %
Test CRC 33F8F50E
Copy CRC 33F8F50E
Accurately ripped (confidence 2) [D2057C46]
Copy OK
Track 9
Filename Bia - Nocturno (2008)\09 - Revolta.wav
Peak level 93.2 %
Track quality 100.0 %
Test CRC 8B30E224
Copy CRC 8B30E224
Accurately ripped (confidence 2) [08872597]
Copy OK
Track 10
Filename Bia - Nocturno (2008)\10 - Coffee In Bed.wav
Peak level 76.9 %
Track quality 100.0 %
Test CRC 40507482
Copy CRC 40507482
Accurately ripped (confidence 2) [A6B65313]
Copy OK
Track 11
Filename Bia - Nocturno (2008)\11 - Madalena.wav
Peak level 77.8 %
Track quality 100.0 %
Test CRC 6E61684C
Copy CRC 6E61684C
Accurately ripped (confidence 2) [32ABE76D]
Copy OK
Track 12
Filename Bia - Nocturno (2008)\12 - Los Hermanos with Lhasa De Sela.wav
Peak level 75.0 %
Track quality 100.0 %
Test CRC E0B64469
Copy CRC E0B64469
Accurately ripped (confidence 2) [BD8BCF3E]
Copy OK
Track 13
Filename Bia - Nocturno (2008)\13 - Exil.wav
Peak level 87.2 %
Track quality 100.0 %
Test CRC 3AE3B613
Copy CRC 3AE3B613
Accurately ripped (confidence 2) [639FBD68]
Copy OK
Track 14
Filename Bia - Nocturno (2008)\14 - Foi a Flor.wav
Peak level 71.5 %
Track quality 100.0 %
Test CRC 6B59864B
Copy CRC 6B59864B
Accurately ripped (confidence 2) [DAAAD8E7]
Copy OK
Track 15
Filename Bia - Nocturno (2008)\15 - Mes Zaricots.wav
Peak level 88.0 %
Track quality 100.0 %
Test CRC B3C96452
Copy CRC B3C96452
Accurately ripped (confidence 2) [429A6431]
Copy OK
13 track(s) accurately ripped
2 track(s) not present in the AccurateRip database
Some tracks could not be verified as accurate
No errors occurred
End of status report
 
Audiocheker's log
Started at: пятница, 08. 01. 2010. - 2:18.26
15 files found
01 -===- G:\Temp\слушать\Bia - Nocturno (2008)\01 - Feio.flac
Extracted successfully
Conclusion: this track is CDDA with probability 100%
Tempfile successfully deleted.
02 -===- G:\Temp\слушать\Bia - Nocturno (2008)\02 - Caminhar.flac
Extracted successfully
Conclusion: this track is CDDA with probability 100%
Tempfile successfully deleted.
03 -===- G:\Temp\слушать\Bia - Nocturno (2008)\03 - Nocturno.flac
Extracted successfully
Conclusion: this track is CDDA with probability 87%
Tempfile successfully deleted.
04 -===- G:\Temp\слушать\Bia - Nocturno (2008)\04 - Venha.flac
Extracted successfully
Conclusion: this track is CDDA with probability 100%
Tempfile successfully deleted.
05 -===- G:\Temp\слушать\Bia - Nocturno (2008)\05 - Personne with Thomas Hellman.flac
Extracted successfully
Conclusion: this track is CDDA with probability 100%
Tempfile successfully deleted.
06 -===- G:\Temp\слушать\Bia - Nocturno (2008)\06 - Vento.flac
Extracted successfully
Conclusion: this track is CDDA with probability 100%
Tempfile successfully deleted.
07 -===- G:\Temp\слушать\Bia - Nocturno (2008)\07 - Momento de Graca.flac
Extracted successfully
Conclusion: this track is CDDA with probability 100%
Tempfile successfully deleted.
08 -===- G:\Temp\слушать\Bia - Nocturno (2008)\08 - Sombres.flac
Extracted successfully
Conclusion: this track is CDDA with probability 100%
Tempfile successfully deleted.
09 -===- G:\Temp\слушать\Bia - Nocturno (2008)\09 - Revolta.flac
Extracted successfully
Conclusion: this track is CDDA with probability 100%
Tempfile successfully deleted.
10 -===- G:\Temp\слушать\Bia - Nocturno (2008)\10 - Coffee In Bed.flac
Extracted successfully
Conclusion: this track is CDDA with probability 100%
Tempfile successfully deleted.
11 -===- G:\Temp\слушать\Bia - Nocturno (2008)\11 - Madalena.flac
Extracted successfully
Conclusion: this track is CDDA with probability 100%
Tempfile successfully deleted.
12 -===- G:\Temp\слушать\Bia - Nocturno (2008)\12 - Los Hermanos with Lhasa De Sela.flac
Extracted successfully
Conclusion: this track is CDDA with probability 100%
Tempfile successfully deleted.
13 -===- G:\Temp\слушать\Bia - Nocturno (2008)\13 - Exil.flac
Extracted successfully
Conclusion: this track is CDDA with probability 100%
Tempfile successfully deleted.
14 -===- G:\Temp\слушать\Bia - Nocturno (2008)\14 - Foi a Flor.flac
Extracted successfully
Conclusion: this track is CDDA with probability 99%
Tempfile successfully deleted.
15 -===- G:\Temp\слушать\Bia - Nocturno (2008)\15 - Mes Zaricots.flac
Extracted successfully
Conclusion: this track is CDDA with probability 99%
Tempfile successfully deleted.
Finished at: пятница, 08. 01. 2010. - 2:32.22 (operation time: 0:13.56)
 
.cue
REM GENRE World
REM DATE 2008
REM DISCID D10DA410
REM COMMENT "ExactAudioCopy v0.99pb5"
FILE "01 - Feio.wav" WAVE
TRACK 01 AUDIO
INDEX 01 00:00:00
FILE "02 - Caminhar.wav" WAVE
TRACK 02 AUDIO
INDEX 01 00:00:00
FILE "03 - Nocturno.wav" WAVE
TRACK 03 AUDIO
INDEX 01 00:00:00
FILE "04 - Venha.wav" WAVE
TRACK 04 AUDIO
INDEX 01 00:00:00
FILE "05 - Personne with Thomas Hellman.wav" WAVE
TRACK 05 AUDIO
INDEX 01 00:00:00
FILE "06 - Vento.wav" WAVE
TRACK 06 AUDIO
INDEX 01 00:00:00
FILE "07 - Momento de Graзa.wav" WAVE
TRACK 07 AUDIO
INDEX 01 00:00:00
FILE "08 - Sombres.wav" WAVE
TRACK 08 AUDIO
INDEX 01 00:00:00
FILE "09 - Revolta.wav" WAVE
TRACK 09 AUDIO
INDEX 01 00:00:00
FILE "10 - Coffee In Bed.wav" WAVE
TRACK 10 AUDIO
INDEX 01 00:00:00
FILE "11 - Madalena.wav" WAVE
TRACK 11 AUDIO
INDEX 01 00:00:00
FILE "12 - Los Hermanos with Lhasa De Sela.wav" WAVE
TRACK 12 AUDIO
INDEX 01 00:00:00
FILE "13 - Exil.wav" WAVE
TRACK 13 AUDIO
INDEX 01 00:00:00
FILE "14 - Foi a Flor.wav" WAVE
TRACK 14 AUDIO
INDEX 01 00:00:00
FILE "15 - Mes Zaricots.wav" WAVE
TRACK 15 AUDIO
INDEX 01 00:00:00
TRACK 16 MODEx/2xxx
INDEX 00 05:09:39
Доп. информация:
Источник - другой трекер. Сканов нет. Релизер - satiatedmanatee.
Доп.доп. информация:
Официальный сайт.
Там же находится ссылка на совместное выступление и Bïa и Lhasa de Sela, на днях, к сожалению, ушедшей.
Download available for power users only.
10:44
231
Нет комментариев. Ваш будет первым!