Поиск

(Avant-Garde, Vocal Jazz, Folk-Jazz) Iva Bittová (Bittova) - River Of Milk - 1991, FLAC (tracks+.cue), lossless

(Avant-Garde, Vocal Jazz, Folk-Jazz) Iva Bittová (Bittova) - River Of Milk - 1991, FLAC (tracks+.cue), lossless
Треклист:
Iva Bittová - River Of Milk
Жанр: Avant-Garde, Vocal Jazz, Folk-Jazz
Год выпуска диска: 1991
Производитель диска: Eva Records
Аудио кодек: FLAC
Тип рипа: tracks+.cue
Битрейт аудио: lossless
Продолжительность: 0:46:37
Трэклист:
01. Vodofon (Waterphone) (2:54)
02. Dirv Nez/Majoranka (Before) (5:53)
03. Proudem Mleka (River of Milk) (4:50)
04. Zvonky (Bells) (3:57)
05. China (3:02)
06. Ples Upiru (The Vampire's Ball) (7:48)
07. Viola I (4:14)
08. Hrai Kdosi Na Hoboj (Someone Played The Oboe) (3:38)
09. Divna Slecinka (Strange Young Lady) (5:09)
10. Viola II (3:06)
11. Jedna Sestra Bratra Mela (There Was A Sister Had A Brother) (2:06)
 
EAC log
Exact Audio Copy V0.99 prebeta 5 from 4. May 2009
EAC extraction logfile from 5. January 2010, 1:52
Iva Bittova / River Of Milk
Used drive : Optiarc DVD RW AD-7200A Adapter: 0 ID: 1
Read mode : Secure
Utilize accurate stream : Yes
Defeat audio cache : Yes
Make use of C2 pointers : No
Read offset correction : 48
Overread into Lead-In and Lead-Out : No
Fill up missing offset samples with silence : Yes
Delete leading and trailing silent blocks : No
Null samples used in CRC calculations : Yes
Used interface : Installed external ASPI interface
Gap handling : Appended to previous track
Used output format : User Defined Encoder
Selected bitrate : 768 kBit/s
Quality : High
Add ID3 tag : No
Command line compressor : C:\Program Files\EAC\EACPortable\App\FLAC\flac.exe
Additional command line options : -8 -V -T "ARTIST=%a" -T "TITLE=%t" -T "ALBUM=%g" -T "DATE=%y" -T "TRACKNUMBER=%n" -T "GENRE=%m" -T "COMMENT=EAC FLAC -8" %s
TOC of the extracted CD
Track | Start | Length | Start sector | End sector
---------------------------------------------------------
1 | 0:00.00 | 2:54.00 | 0 | 13049
2 | 2:54.00 | 5:53.35 | 13050 | 39559
3 | 8:47.35 | 4:50.25 | 39560 | 61334
4 | 13:37.60 | 3:56.50 | 61335 | 79084
5 | 17:34.35 | 3:02.20 | 79085 | 92754
6 | 20:36.55 | 7:48.35 | 92755 | 127889
7 | 28:25.15 | 4:14.10 | 127890 | 146949
8 | 32:39.25 | 3:38.07 | 146950 | 163306
9 | 36:17.32 | 5:08.53 | 163307 | 186459
10 | 41:26.10 | 3:05.55 | 186460 | 200389
11 | 44:31.65 | 2:05.42 | 200390 | 209806
Track 1
Filename C:\Documents and Settings\Администратор\Рабочий стол\Новая папка\01. Iva Bittova – Vodofon (Waterphone).wav
Pre-gap length 0:00:02.00
Peak level 100.0 %
Track quality 99.9 %
Test CRC 09B6B759
Copy CRC 09B6B759
Copy OK
Track 2
Filename C:\Documents and Settings\Администратор\Рабочий стол\Новая папка\02. Iva Bittova – Dirv Nez,Majoranka (Before).wav
Peak level 76.7 %
Track quality 100.0 %
Test CRC F83B30EF
Copy CRC F83B30EF
Copy OK
Track 3
Filename C:\Documents and Settings\Администратор\Рабочий стол\Новая папка\03. Iva Bittova – Proudem Mleka (River of Milk).wav
Peak level 52.6 %
Track quality 100.0 %
Test CRC 1C53CA46
Copy CRC 1C53CA46
Copy OK
Track 4
Filename C:\Documents and Settings\Администратор\Рабочий стол\Новая папка\04. Iva Bittova – Zvonky (Bells).wav
Peak level 96.1 %
Track quality 100.0 %
Test CRC 6D93617F
Copy CRC 6D93617F
Copy OK
Track 5
Filename C:\Documents and Settings\Администратор\Рабочий стол\Новая папка\05. Iva Bittova – China.wav
Peak level 56.3 %
Track quality 99.9 %
Test CRC 64C375B4
Copy CRC 64C375B4
Copy OK
Track 6
Filename C:\Documents and Settings\Администратор\Рабочий стол\Новая папка\06. Iva Bittova – Ples Upiru (The Vampire's Ball).wav
Peak level 75.0 %
Track quality 100.0 %
Test CRC 9E82785D
Copy CRC 9E82785D
Copy OK
Track 7
Filename C:\Documents and Settings\Администратор\Рабочий стол\Новая папка\07. Iva Bittova – Viola I.wav
Peak level 59.3 %
Track quality 100.0 %
Test CRC E828C042
Copy CRC E828C042
Copy OK
Track 8
Filename C:\Documents and Settings\Администратор\Рабочий стол\Новая папка\08. Iva Bittova – Hrai Kdosi Na Hoboj (Someone Played The Oboe).wav
Peak level 78.2 %
Track quality 100.0 %
Test CRC FA28CCA5
Copy CRC FA28CCA5
Copy OK
Track 9
Filename C:\Documents and Settings\Администратор\Рабочий стол\Новая папка\09. Iva Bittova – Divna Slecinka (Strange Young Lady).wav
Peak level 91.9 %
Track quality 100.0 %
Test CRC 1E907900
Copy CRC 1E907900
Copy OK
Track 10
Filename C:\Documents and Settings\Администратор\Рабочий стол\Новая папка\10. Iva Bittova – Viola II.wav
Peak level 100.0 %
Track quality 100.0 %
Test CRC 4B78955B
Copy CRC 4B78955B
Copy OK
Track 11
Filename C:\Documents and Settings\Администратор\Рабочий стол\Новая папка\11. Iva Bittova – Jedna Sestra Bratra Mela (There Was A Sister Had A Brother).wav
Peak level 100.0 %
Track quality 100.0 %
Test CRC 68FEE909
Copy CRC 68FEE909
Copy OK
No errors occurred
End of status report
 
Audiocheker's log
Started at: четверг, 07. 01. 2010. - 0:38.19
11 files found
01 -===- G:\Downloads\Iva Bittova - River Of Milk (1991)\01. Iva Bittova – Vodofon (Waterphone).flac
Extracted successfully
Conclusion: this track is CDDA with probability 100%
Tempfile successfully deleted.
02 -===- G:\Downloads\Iva Bittova - River Of Milk (1991)\02. Iva Bittova – Dirv Nez,Majoranka (Before).flac
Extracted successfully
Conclusion: this track is CDDA with probability 100%
Tempfile successfully deleted.
03 -===- G:\Downloads\Iva Bittova - River Of Milk (1991)\03. Iva Bittova – Proudem Mleka (River of Milk).flac
Extracted successfully
Conclusion: this track is CDDA with probability 99%
Tempfile successfully deleted.
04 -===- G:\Downloads\Iva Bittova - River Of Milk (1991)\04. Iva Bittova – Zvonky (Bells).flac
Extracted successfully
Conclusion: this track is CDDA with probability 100%
Tempfile successfully deleted.
05 -===- G:\Downloads\Iva Bittova - River Of Milk (1991)\05. Iva Bittova – China.flac
Extracted successfully
Conclusion: this track is CDDA with probability 100%
Tempfile successfully deleted.
06 -===- G:\Downloads\Iva Bittova - River Of Milk (1991)\06. Iva Bittova – Ples Upiru (The Vampire's Ball).flac
Extracted successfully
Conclusion: this track is CDDA with probability 100%
Tempfile successfully deleted.
07 -===- G:\Downloads\Iva Bittova - River Of Milk (1991)\07. Iva Bittova – Viola I.flac
Extracted successfully
Conclusion: this track is CDDA with probability 100%
Tempfile successfully deleted.
08 -===- G:\Downloads\Iva Bittova - River Of Milk (1991)\08. Iva Bittova – Hrai Kdosi Na Hoboj (Someone Played The Oboe).flac
Extracted successfully
Conclusion: this track is CDDA with probability 100%
Tempfile successfully deleted.
09 -===- G:\Downloads\Iva Bittova - River Of Milk (1991)\09. Iva Bittova – Divna Slecinka (Strange Young Lady).flac
Extracted successfully
Conclusion: this track is CDDA with probability 100%
Tempfile successfully deleted.
10 -===- G:\Downloads\Iva Bittova - River Of Milk (1991)\10. Iva Bittova – Viola II.flac
Extracted successfully
Conclusion: this track is CDDA with probability 100%
Tempfile successfully deleted.
11 -===- G:\Downloads\Iva Bittova - River Of Milk (1991)\11. Iva Bittova – Jedna Sestra Bratra Mela (There Was A Sister Had A Brother).flac
Extracted successfully
Conclusion: this track is CDDA with probability 100%
Tempfile successfully deleted.
Finished at: четверг, 07. 01. 2010. - 0:52.04 (operation time: 0:13.45)
 
.cue
REM DISCID A70AED0B
REM COMMENT "ExactAudioCopy v0.99pb5"
PERFORMER "Iva Bittova"
TITLE "River Of Milk"
FILE "01. Iva Bittova – Vodofon (Waterphone).wav" WAVE
TRACK 01 AUDIO
TITLE "Vodofon (Waterphone)"
PERFORMER "Iva Bittova"
INDEX 01 00:00:00
FILE "02. Iva Bittova – Dirv Nez,Majoranka (Before).wav" WAVE
TRACK 02 AUDIO
TITLE "Dirv Nez/Majoranka (Before)"
PERFORMER "Iva Bittova"
INDEX 01 00:00:00
FILE "03. Iva Bittova – Proudem Mleka (River of Milk).wav" WAVE
TRACK 03 AUDIO
TITLE "Proudem Mleka (River of Milk)"
PERFORMER "Iva Bittova"
INDEX 01 00:00:00
FILE "04. Iva Bittova – Zvonky (Bells).wav" WAVE
TRACK 04 AUDIO
TITLE "Zvonky (Bells)"
PERFORMER "Iva Bittova"
INDEX 01 00:00:00
FILE "05. Iva Bittova – China.wav" WAVE
TRACK 05 AUDIO
TITLE "China"
PERFORMER "Iva Bittova"
INDEX 01 00:00:00
FILE "06. Iva Bittova – Ples Upiru (The Vampire's Ball).wav" WAVE
TRACK 06 AUDIO
TITLE "Ples Upiru (The Vampire's Ball)"
PERFORMER "Iva Bittova"
INDEX 01 00:00:00
FILE "07. Iva Bittova – Viola I.wav" WAVE
TRACK 07 AUDIO
TITLE "Viola I"
PERFORMER "Iva Bittova"
INDEX 01 00:00:00
FILE "08. Iva Bittova – Hrai Kdosi Na Hoboj (Someone Played The Oboe).wav" WAVE
TRACK 08 AUDIO
TITLE "Hrai Kdosi Na Hoboj (Someone Played The Oboe)"
PERFORMER "Iva Bittova"
INDEX 01 00:00:00
FILE "09. Iva Bittova – Divna Slecinka (Strange Young Lady).wav" WAVE
TRACK 09 AUDIO
TITLE "Divna Slecinka (Strange Young Lady)"
PERFORMER "Iva Bittova"
INDEX 01 00:00:00
FILE "10. Iva Bittova – Viola II.wav" WAVE
TRACK 10 AUDIO
TITLE "Viola II"
PERFORMER "Iva Bittova"
INDEX 01 00:00:00
FILE "11. Iva Bittova – Jedna Sestra Bratra Mela (There Was A Sister Had A Brother).wav" WAVE
TRACK 11 AUDIO
TITLE "Jedna Sestra Bratra Mela (There Was A Sister Had A Brother)"
PERFORMER "Iva Bittova"
INDEX 01 00:00:00
Доп. информация:
Источник - другой трекер. Сканы в комплекте. Релизер - groober.
Download available for power users only.
10:44
176
Нет комментариев. Ваш будет первым!