Поиск

(Latin Jazz/Smooth Jazz) Freddie Ravel - Freddie Ravel - 2001, FLAC (image+.cue), lossless

(Latin Jazz/Smooth Jazz) Freddie Ravel - Freddie Ravel - 2001, FLAC (image+.cue), lossless
Треклист:
Freddie Ravel - Freddie Ravel
Жанр: Latin Jazz/Smooth Jazz
Год выпуска диска: 2001
Производитель диска: US
Аудио кодек: FLAC
Тип рипа: image+.cue
Битрейт аудио: lossless
Продолжительность: 00:47:42
Трэклист:
01. Echo de Amor (4:28)
02. Samba Mundial (4:52)
03. Sunny Side Up (4:11)
04. Bolerino Bella (4:34)
05. Love Is in the Air...When You're Aware (4:21)
06. Conversations (4:46)
07. Piano Sensual (4:56)
08. Dame Tu Calor (Vocal Version) (5:00)
09. Summerplay (4:33)
10. Dame la Razon (Love Is In the Air, Spanish Mix) (4:21)
11. Echo de Amor (Duet Version) (1:38)
Доп. информация:
 
Отчёт EAC
Exact Audio Copy V0.99 prebeta 5 from 4. May 2009
EAC extraction logfile from 10. January 2010, 1:40
Freddie Ravel / Freddie Ravel
Used drive : TOSHIBA CD/DVDW SDR5472C Adapter: 0 ID: 1
Read mode : Secure
Utilize accurate stream : Yes
Defeat audio cache : Yes
Make use of C2 pointers : No
Read offset correction : 6
Overread into Lead-In and Lead-Out : No
Fill up missing offset samples with silence : Yes
Delete leading and trailing silent blocks : No
Null samples used in CRC calculations : Yes
Used interface : Installed external ASPI interface
Used output format : User Defined Encoder
Selected bitrate : 128 kBit/s
Quality : High
Add ID3 tag : No
Command line compressor : C:\Program Files\Exact Audio Copy\FLAC\FLAC.EXE
Additional command line options : -8 -V %s
TOC of the extracted CD
Track | Start | Length | Start sector | End sector
---------------------------------------------------------
1 | 0:00.00 | 4:27.70 | 0 | 20094
2 | 4:27.70 | 4:52.22 | 20095 | 42016
3 | 9:20.17 | 4:11.05 | 42017 | 60846
4 | 13:31.22 | 4:34.20 | 60847 | 81416
5 | 18:05.42 | 4:20.55 | 81417 | 100971
6 | 22:26.22 | 4:45.48 | 100972 | 122394
7 | 27:11.70 | 4:55.52 | 122395 | 144571
8 | 32:07.47 | 5:00.05 | 144572 | 167076
9 | 37:07.52 | 4:33.08 | 167077 | 187559
10 | 41:40.60 | 4:21.02 | 187560 | 207136
11 | 46:01.62 | 1:38.33 | 207137 | 214519
Range status and errors
Selected range
Filename C:\Documents and Settings\Magistr\Рабочий стол\Freddie Ravel - Freddie Ravel.wav
Peak level 96.5 %
Range quality 100.0 %
Test CRC BB1F54D9
Copy CRC BB1F54D9
Copy OK
No errors occurred
End of status report
По всем вопросам пишите личное сообщение пользователю M0p94ok.
10:45
208
Нет комментариев. Ваш будет первым!