Поиск

(Brazilian Jazz,Bossa Nova) Iara Negrete - Brazil Classics - 2006, FLAC (image+.cue), lossless

(Brazilian Jazz,Bossa Nova) Iara Negrete - Brazil Classics - 2006, FLAC (image+.cue), lossless
Треклист:
Iara Negrete / Brazil Classics
Жанр: Brazilian Jazz,Bossa Nova
Страна-производитель диска: Украина
Год издания диска: 2006
Издатель (лейбл): Winner Records under lic.from Le Maquis
Номер по каталогу: 54074
Страна: Brazil
Аудиокодек: FLAC (*.flac)
Тип рипа: image+.cue
Битрейт аудио: lossless
Продолжительность: 49:04
Источник (релизер): собственный диск
Наличие сканов в содержимом раздачи: да
Треклист:
01. Desafinado (03:33)
02. Samba Triste (03:04)
03. Estrada Do Sol (03:39)
04. Recado (02:36)
05. Tomanco No Samba (Samba Blim) (02:28)
06. Pra Que Chorar? (02:46)
07. Dime? (Feelings) (03:40)
08. Murmurio (03:15)
09. Pela Rua (02:36)
10. Mormaço (02:41)
11. Da Cor Do Pecado (02:43)
12. Idélias Erradas (02:34)
13. A Banca Do Dostinto (02:56)
14. Palhaçada (02:48)
15. Sambou...Sambou... (01:48)
16. A Voz Do Morro (03:27)
17. Pela Rua (Prelúdeo) (02:24)
 
Лог создания рипа
X Lossless Decoder version 20120226 (139.1)
XLD extraction logfile from 2012-02-29 02:59:56 +0200
Iara Negrete / Brazil classics
Used drive : MATSHITA DVD-R UJ-898 (revision HC09)
Ripper mode : XLD Secure Ripper
Disable audio cache : OK for the drive with a cache less than 1375KiB
Make use of C2 pointers : NO
Read offset correction : 102
Max retry count : 20
Gap status : Analyzed, Appended
TOC of the extracted CD
Track | Start | Length | Start sector | End sector
---------------------------------------------------------
1 | 00:00:00 | 03:33:45 | 0 | 16019
2 | 03:33:45 | 03:04:50 | 16020 | 29869
3 | 06:38:20 | 03:38:62 | 29870 | 46281
4 | 10:17:07 | 02:36:04 | 46282 | 57985
5 | 12:53:11 | 02:28:17 | 57986 | 69102
6 | 15:21:28 | 02:46:60 | 69103 | 81612
7 | 18:08:13 | 03:40:21 | 81613 | 98133
8 | 21:48:34 | 03:15:31 | 98134 | 112789
9 | 25:03:65 | 02:36:04 | 112790 | 124493
10 | 27:39:69 | 02:41:49 | 124494 | 136617
11 | 30:21:43 | 02:43:32 | 136618 | 148874
12 | 33:05:00 | 02:34:74 | 148875 | 160498
13 | 35:39:74 | 02:56:32 | 160499 | 173730
14 | 38:36:31 | 02:48:02 | 173731 | 186332
15 | 41:24:33 | 01:48:56 | 186333 | 194488
16 | 43:13:14 | 03:27:29 | 194489 | 210042
17 | 46:40:43 | 02:24:07 | 210043 | 220849
AccurateRip Summary
Disc not found in AccurateRip DB.
All Tracks
Filename : /Users/macuser/Music/myRips/iara negrete-brazil classics(2006)/01 Iara Negrete - Brazil classics.flac
Album gain : -4.55 dB
Peak : 1.000000
CRC32 hash (test run) : BA54EC0B
CRC32 hash : BA54EC0B
CRC32 hash (skip zero) : 69F7E983
Statistics
Read error : 0
Jitter error (maybe fixed) : 0
Retry sector count : 0
Damaged sector count : 0
Track 01
Pre-gap length : 00:02:00
Track gain : -4.24 dB
Peak : 0.943939
CRC32 hash (test run) : A8DDA2F6
CRC32 hash : A8DDA2F6
CRC32 hash (skip zero) : AAC99BC9
AccurateRip signature : 124E411E
->Track not present in AccurateRip database.
Statistics
Read error : 0
Jitter error (maybe fixed) : 0
Retry sector count : 0
Damaged sector count : 0
Track 02
Track gain : -5.20 dB
Peak : 1.000000
CRC32 hash (test run) : 1C36E1B5
CRC32 hash : 1C36E1B5
CRC32 hash (skip zero) : 1C36E1B5
AccurateRip signature : 6F4C5C95
->Track not present in AccurateRip database.
Statistics
Read error : 0
Jitter error (maybe fixed) : 0
Retry sector count : 0
Damaged sector count : 0
Track 03
Track gain : -3.81 dB
Peak : 1.000000
CRC32 hash (test run) : 4957D9E3
CRC32 hash : 4957D9E3
CRC32 hash (skip zero) : 4957D9E3
AccurateRip signature : 95352506
->Track not present in AccurateRip database.
Statistics
Read error : 0
Jitter error (maybe fixed) : 0
Retry sector count : 0
Damaged sector count : 0
Track 04
Track gain : -4.18 dB
Peak : 0.926544
CRC32 hash (test run) : 415A5A1D
CRC32 hash : 415A5A1D
CRC32 hash (skip zero) : 415A5A1D
AccurateRip signature : 3B6DAA29
->Track not present in AccurateRip database.
Statistics
Read error : 0
Jitter error (maybe fixed) : 0
Retry sector count : 0
Damaged sector count : 0
Track 05
Track gain : -3.78 dB
Peak : 1.000000
CRC32 hash (test run) : 7ABF1069
CRC32 hash : 7ABF1069
CRC32 hash (skip zero) : 7ABF1069
AccurateRip signature : 4BC83043
->Track not present in AccurateRip database.
Statistics
Read error : 0
Jitter error (maybe fixed) : 0
Retry sector count : 0
Damaged sector count : 0
Track 06
Track gain : -3.94 dB
Peak : 1.000000
CRC32 hash (test run) : 05A30D1C
CRC32 hash : 05A30D1C
CRC32 hash (skip zero) : 05A30D1C
AccurateRip signature : B57A9BA5
->Track not present in AccurateRip database.
Statistics
Read error : 0
Jitter error (maybe fixed) : 0
Retry sector count : 0
Damaged sector count : 0
Track 07
Track gain : -3.92 dB
Peak : 0.999969
CRC32 hash (test run) : D5E7B10C
CRC32 hash : D5E7B10C
CRC32 hash (skip zero) : D5E7B10C
AccurateRip signature : E6B10137
->Track not present in AccurateRip database.
Statistics
Read error : 0
Jitter error (maybe fixed) : 0
Retry sector count : 0
Damaged sector count : 0
Track 08
Track gain : -4.07 dB
Peak : 1.000000
CRC32 hash (test run) : 9935CE6E
CRC32 hash : 9935CE6E
CRC32 hash (skip zero) : 9935CE6E
AccurateRip signature : 35148E0F
->Track not present in AccurateRip database.
Statistics
Read error : 0
Jitter error (maybe fixed) : 0
Retry sector count : 0
Damaged sector count : 0
Track 09
Track gain : -5.08 dB
Peak : 0.999969
CRC32 hash (test run) : 0F9D6962
CRC32 hash : 0F9D6962
CRC32 hash (skip zero) : 0F9D6962
AccurateRip signature : F925345B
->Track not present in AccurateRip database.
Statistics
Read error : 0
Jitter error (maybe fixed) : 0
Retry sector count : 0
Damaged sector count : 0
Track 10
Track gain : -4.66 dB
Peak : 0.943939
CRC32 hash (test run) : 130E68DC
CRC32 hash : 130E68DC
CRC32 hash (skip zero) : 130E68DC
AccurateRip signature : 938BF6FF
->Track not present in AccurateRip database.
Statistics
Read error : 0
Jitter error (maybe fixed) : 0
Retry sector count : 0
Damaged sector count : 0
Track 11
Track gain : -2.47 dB
Peak : 0.943939
CRC32 hash (test run) : 04655C3A
CRC32 hash : 04655C3A
CRC32 hash (skip zero) : 04655C3A
AccurateRip signature : 1D347B49
->Track not present in AccurateRip database.
Statistics
Read error : 0
Jitter error (maybe fixed) : 0
Retry sector count : 0
Damaged sector count : 0
Track 12
Track gain : -4.72 dB
Peak : 0.944794
CRC32 hash (test run) : D0205BD3
CRC32 hash : D0205BD3
CRC32 hash (skip zero) : D0205BD3
AccurateRip signature : 096B2253
->Track not present in AccurateRip database.
Statistics
Read error : 0
Jitter error (maybe fixed) : 0
Retry sector count : 0
Damaged sector count : 0
Track 13
Track gain : -4.95 dB
Peak : 1.000000
CRC32 hash (test run) : EC66C858
CRC32 hash : EC66C858
CRC32 hash (skip zero) : EC66C858
AccurateRip signature : 0D5CF960
->Track not present in AccurateRip database.
Statistics
Read error : 0
Jitter error (maybe fixed) : 0
Retry sector count : 0
Damaged sector count : 0
Track 14
Track gain : -3.90 dB
Peak : 1.000000
CRC32 hash (test run) : F8D43865
CRC32 hash : F8D43865
CRC32 hash (skip zero) : F8D43865
AccurateRip signature : 3FD72119
->Track not present in AccurateRip database.
Statistics
Read error : 0
Jitter error (maybe fixed) : 0
Retry sector count : 0
Damaged sector count : 0
Track 15
Track gain : -5.04 dB
Peak : 1.000000
CRC32 hash (test run) : 65757BF7
CRC32 hash : 65757BF7
CRC32 hash (skip zero) : 65757BF7
AccurateRip signature : EB3AE969
->Track not present in AccurateRip database.
Statistics
Read error : 0
Jitter error (maybe fixed) : 0
Retry sector count : 0
Damaged sector count : 0
Track 16
Track gain : -5.07 dB
Peak : 1.000000
CRC32 hash (test run) : 16337352
CRC32 hash : 16337352
CRC32 hash (skip zero) : 16337352
AccurateRip signature : EA0C1566
->Track not present in AccurateRip database.
Statistics
Read error : 0
Jitter error (maybe fixed) : 0
Retry sector count : 0
Damaged sector count : 0
Track 17
Track gain : -5.76 dB
Peak : 1.000000
CRC32 hash (test run) : CF9885B4
CRC32 hash : CF9885B4
CRC32 hash (skip zero) : 6B795FF2
AccurateRip signature : 2FE57092
->Track not present in AccurateRip database.
Statistics
Read error : 0
Jitter error (maybe fixed) : 0
Retry sector count : 0
Damaged sector count : 0
No errors occurred
End of status report
 
Лог проверки качества
-----------------------
DON'T MODIFY THIS FILE
-----------------------
PERFORMER: auCDtect Task Manager, ver. 1.5.1RC2 build 1.5.1.3
Copyright (c) 2008-2010 y-soft. All rights reserved
http://y-soft.org
ANALYZER: auCDtect: CD records authenticity detector, version 0.8.2
Copyright (c) 2004 Oleg Berngardt. All rights reserved.
Copyright (c) 2004 Alexander Djourik. All rights reserved.
FILE: 01 Iara Negrete - Brazil classics.flac
Size: 309728505 Hash: 8142DDA52449B7875D7CCCD9F250A352 Accuracy: -m0
Conclusion: CDDA 100%
Signature: A164A0B8B61E4F4511744168C7D34019908F0365
 
Состав
Iara Negrete vocals
Celso Fonseca drums
Luiz Carlos de Paula percussio
Itamar Collaco bass
Marcus Teixeira acoustic guitar and guitar
Robertinho Bomilcar piano
Antonio Carlos Neves Pinto piano,rhodes,samplers
Bocato trombone
Carmen Garsia flute
02:57
331
Нет комментариев. Ваш будет первым!