Поиск

(Latin Jazz, World Fusion) Willie Rodriguez Jazz Quartet - Flatjacks - 2003, FLAC (image+.cue), lossless

Треклист:
Willie Rodriguez Jazz Quartet - Flatjacks
Жанр: Latin Jazz, World Fusion
Страна-производитель диска: USA
Год издания диска: 2003
Издатель (лейбл): Milestone
Номер по каталогу: MCD-9331-2
Аудиокодек: FLAC (*.flac)
Тип рипа: image+.cue
Битрейт аудио: lossless
Продолжительность: 00:38:38
Источник (релизер): dreadbull
Наличие сканов в содержимом раздачи: да
01. Moliendo Caf [03:49]
02. Serenata [03:02]
03. aigo Soul [02:14]
04. Mr. Yosso [04:36]
05. Brasileira [02:20]
06. One Foot In the gutter [04:49]
07. It Happened In Monterey [03:30]
08. Flatjacks (Just a Minor Bass - A Nova) [02:58]
09. Seafood Wally [03:04]
10. After Words [02:38]
11. Tasty [02:45]
12. El Sueo de Frances [02:49]
Recorded by Ray Fowler at Plaza Sound Studios, NYC, in July-August 1963
 
Лог создания рипа
Exact Audio Copy V1.0 beta 3 from 29. August 2011
EAC extraction logfile from 1. March 2012, 16:47
Willie Rodriguez Jazz Quartet / Flatjacks
Used drive : ASUS DRW-22B2L Adapter: 0 ID: 1
Read mode : Secure
Utilize accurate stream : Yes
Defeat audio cache : Yes
Make use of C2 pointers : No
Read offset correction : 6
Overread into Lead-In and Lead-Out : No
Fill up missing offset samples with silence : Yes
Delete leading and trailing silent blocks : No
Null samples used in CRC calculations : Yes
Used interface : Native Win32 interface for Win NT & 2000
Used output format : User Defined Encoder
Selected bitrate : 128 kBit/s
Quality : High
Add ID3 tag : Yes
Command line compressor : C:\Program Files\FLAC\flac.exe
Additional command line options : -8 -V -T "ARTIST=%artist%" -T "TITLE=%title%" -T "ALBUM=%albumtitle%" -T "DATE=%year%" -T "TRACKNUMBER=%tracknr%" -T "GENRE=%genre%" -T "PERFORMER=%albuminterpret%" -T "COMPOSER=%composer%" %haslyrics%--tag-from-file=LYRICS="%lyricsfile%"%haslyrics% -T "ALBUMARTIST=%albumartist%" -T "DISCNUMBER=%cdnumber%" -T "TOTALDISCS=%totalcds%" -T "TOTALTRACKS=%numtracks%" -T "COMMENT=%comment%" %source% -o %dest%
TOC of the extracted CD
Track | Start | Length | Start sector | End sector
---------------------------------------------------------
1 | 0:00.00 | 3:52.50 | 0 | 17449
2 | 3:52.50 | 3:05.02 | 17450 | 31326
3 | 6:57.52 | 2:16.68 | 31327 | 41594
4 | 9:14.45 | 4:38.42 | 41595 | 62486
5 | 13:53.12 | 2:22.65 | 62487 | 73201
6 | 16:16.02 | 4:52.50 | 73202 | 95151
7 | 21:08.52 | 3:32.55 | 95152 | 111106
8 | 24:41.32 | 3:00.33 | 111107 | 124639
9 | 27:41.65 | 3:08.07 | 124640 | 138746
10 | 30:49.72 | 2:42.18 | 138747 | 150914
11 | 33:32.15 | 2:47.60 | 150915 | 163499
12 | 36:20.00 | 2:49.17 | 163500 | 176191
Range status and errors
Selected range
Filename D:\Donkey Files\Willie Rodriguez Jazz Quartet - Flatjacks (1964, Milestone) [eac-flac-scans] byDrBull\Flatjacks.wav
Peak level 95.7 %
Extraction speed 5.3 X
Range quality 99.9 %
Test CRC B50FE149
Copy CRC B50FE149
Copy OK
No errors occurred
AccurateRip summary
Track 1 accurately ripped (confidence 1) [CF52F9FE] (AR v1)
Track 2 accurately ripped (confidence 1) [4B2C8CA8] (AR v1)
Track 3 accurately ripped (confidence 1) [590DE058] (AR v1)
Track 4 accurately ripped (confidence 1) [4627ACB6] (AR v1)
Track 5 accurately ripped (confidence 1) [94D26067] (AR v1)
Track 6 accurately ripped (confidence 1) [5A1DEEFA] (AR v1)
Track 7 accurately ripped (confidence 1) [1ECCC680] (AR v1)
Track 8 accurately ripped (confidence 1) [BB632752] (AR v1)
Track 9 accurately ripped (confidence 1) [920C9C84] (AR v1)
Track 10 accurately ripped (confidence 1) [D3F60307] (AR v1)
Track 11 accurately ripped (confidence 1) [3F344A54] (AR v1)
Track 12 accurately ripped (confidence 1) [DF1540A2] (AR v1)
All tracks accurately ripped
End of status report
==== Log checksum 68494D8B1475D1FEDB69646DA5111FFF45EDF323770CAB6A94CC2E2F8F773E72 ====
 
Содержание индексной карты (.CUE)
REM GENRE Jazz
REM DATE 1964
REM DISCID 9E092D0C
REM COMMENT "ExactAudioCopy v1.0b3"
PERFORMER "Willie Rodriguez Jazz Quartet"
TITLE "Flatjacks"
FILE "Flatjacks.flac" WAVE
TRACK 01 AUDIO
TITLE "Moliendo Caf"
PERFORMER "Willie Rodriguez Jazz Quartet"
ISRC H2=S56400198
INDEX 01 00:00:00
TRACK 02 AUDIO
TITLE "Serenata"
PERFORMER "Willie Rodriguez Jazz Quartet"
ISRC H2=S56400199
INDEX 00 03:49:37
INDEX 01 03:52:50
TRACK 03 AUDIO
TITLE "aigo Soul"
PERFORMER "Willie Rodriguez Jazz Quartet"
ISRC H2=S56400200
INDEX 00 06:55:00
INDEX 01 06:57:52
TRACK 04 AUDIO
TITLE "Mr. Yosso"
PERFORMER "Willie Rodriguez Jazz Quartet"
ISRC H2=S56400201
INDEX 00 09:12:20
INDEX 01 09:14:45
TRACK 05 AUDIO
TITLE "Brasileira"
PERFORMER "Willie Rodriguez Jazz Quartet"
ISRC H2=S56400202
INDEX 00 13:50:67
INDEX 01 13:53:12
TRACK 06 AUDIO
TITLE "One Foot In the gutter"
PERFORMER "Willie Rodriguez Jazz Quartet"
ISRC H2=S56400203
INDEX 00 16:13:62
INDEX 01 16:16:02
TRACK 07 AUDIO
TITLE "It Happened In Monterey"
PERFORMER "Willie Rodriguez Jazz Quartet"
ISRC H2=S56400204
INDEX 00 21:05:25
INDEX 01 21:08:52
TRACK 08 AUDIO
TITLE "Flatjacks (Just a Minor Bass - A Nova)"
PERFORMER "Willie Rodriguez Jazz Quartet"
ISRC H2=S56400205
INDEX 00 24:38:70
INDEX 01 24:41:32
TRACK 09 AUDIO
TITLE "Seafood Wally"
PERFORMER "Willie Rodriguez Jazz Quartet"
ISRC H2=S56400206
INDEX 00 27:39:40
INDEX 01 27:41:65
TRACK 10 AUDIO
TITLE "After Words"
PERFORMER "Willie Rodriguez Jazz Quartet"
ISRC H2=S56400207
INDEX 00 30:46:42
INDEX 01 30:49:72
TRACK 11 AUDIO
TITLE "Tasty"
PERFORMER "Willie Rodriguez Jazz Quartet"
ISRC H2=S56400208
INDEX 00 33:28:50
INDEX 01 33:32:15
TRACK 12 AUDIO
TITLE "El Sueo de Frances"
PERFORMER "Willie Rodriguez Jazz Quartet"
ISRC H2=S56400209
INDEX 00 36:17:27
INDEX 01 36:20:00
 
Состав
Willie Rodriguez (drums, bongos, percussion)
Barry Galbraith (guitar)
Seldon Powell (flute, clarinet, saxophone, alto saxophone, tenor saxophone)
01:57
274
Нет комментариев. Ваш будет первым!