Поиск

(Tango Nuevo, Latin Jazz) Astor Piazzolla & Gary Burton - The New Tango - 1988, FLAC (image+.cue) lossless

(Tango Nuevo, Latin Jazz) Astor Piazzolla & Gary Burton - The New Tango - 1988, FLAC (image+.cue) lossless
Astor Piazzolla & Gary Burton — The New Tango
Жанр: Tango Nuevo, Latin Jazz
Год издания диска: 1988
Издатель (лейбл): WEA
Номер по каталогу: 2292-55069-2
Аудио кодек: FLAC (*.flac)
Тип рипа: image+.cue
Битрейт аудио: lossless
Продолжительность: 58:54
Rip by barcoebrio
Сканы есть
Треклист:
01. Milonga is Coming (12:07)
02. Vibraphonissimo (6:40)
03. Little Italy 1930 (8:34)
04. Nuevo Tango (5:39)
05. Laura's Dream (11:57)
06. Operation Tango (9:58)
07. La Muerte del Angel (4:00)
Personnel:
Astor Piazzolla - bandoneon
Gary Burton - vibes
Pablo Ziegler - piano
Fernando Suarez Paz - violin
Horacio Malvicino - guitar
Hector Console - bass
Rec.: Montreux, Switzerland, July 1986.
 
 
Лог создания рипа (оригинал)
EAC extrae el archivo del registro desde 30. Mayo 2006, 16:01 para el CD
Astor Piazzolla, Gary Burton / The New Tango
Unidad Usada: SAMSUNG CD-R/RW SW-252B Adapter: 1 ID: 0
Modo de Lectura: Seguro sin C2, con Flujo Preciso, desactivando Cache
Correcciуn de Lectura del Balance: 97
Leer dentro de la cabecera de inicio y cierre del CD : No
Usar Formato de Salida: Rutinas internas del WAV
44.100 Hz; 16 Bit; Estйreo
Otras Opciones:
Rellenar muestras pйrdidas del balance con silencios : Si
Eliminar bloques de silencios al principio y final : No
Interfaz ASPI externa instalada
Lнmite erroneo
Seleccionar Lнmite
Nombre de archivo C:\Documents and Settings\Usuario\Mis documentos\Mi mъsica\Ripeos\Astor Piazzolla, Gary Burton - The New Tango.wav
Nivel de pico 97.4 %
Calidad de lнmite 100.0 %
CRC 6FD352E5
Copia realizada
No existen errores
Fin de la informaciуn de estado
 
Лог создания рипа (перевод)
EAC extraction logfile from 30. May 2006, 16:01 for CD
Astor Piazzolla, Gary Burton / The New Tango
Used drive : SAMSUNG CD-R/RW SW-252B Adapter: 1 ID: 0
Read mode : Secure with NO C2, accurate stream, disable cache
Read offset correction : 97
Overread into Lead-In and Lead-Out : No
Used output format : Internal WAV Routines
44.100 Hz; 16 Bit; Stereo
Other options :
Fill up missing offset samples with silence : Yes
Delete leading and trailing silent blocks : No
Installed external ASPI interface
Range status and errors
Selected range
Filename C:\Documents and Settings\Usuario\Mis documentos\Mi mъsica\Ripeos\Astor Piazzolla, Gary Burton - The New Tango.wav
Peak level 97.4 %
Range quality 100.0 %
CRC 6FD352E5
Copy OK
No errors occured
End of status report
 
Содержание индексной карты (.CUE)
REM GENRE Jazz
REM DATE 1987
REM DISCID 720DCE07
REM COMMENT "ExactAudioCopy v0.95b3"
CATALOG 2550690200009
PERFORMER "Astor Piazzolla, Gary Burton"
TITLE "The New Tango"
FILE "Astor Piazzolla, Gary Burton - The New Tango.flac" WAVE
TRACK 01 AUDIO
TITLE "Milonga is Coming"
PERFORMER "Astor Piazzolla, Gary Burton"
INDEX 00 00:00:00
INDEX 01 00:00:72
TRACK 02 AUDIO
TITLE "Vibraphonissimo"
PERFORMER "Astor Piazzolla, Gary Burton"
INDEX 01 12:07:64
TRACK 03 AUDIO
TITLE "Little Italy 1930"
PERFORMER "Astor Piazzolla, Gary Burton"
INDEX 01 18:47:54
TRACK 04 AUDIO
TITLE "Nuevo Tango"
PERFORMER "Astor Piazzolla, Gary Burton"
INDEX 00 27:18:71
INDEX 01 27:21:32
TRACK 05 AUDIO
TITLE "Laura's Dream"
PERFORMER "Astor Piazzolla, Gary Burton"
INDEX 01 33:00:39
TRACK 06 AUDIO
TITLE "Operation Tango"
PERFORMER "Astor Piazzolla, Gary Burton"
INDEX 01 44:57:34
TRACK 07 AUDIO
TITLE "La Muerte del Angel"
PERFORMER "Astor Piazzolla, Gary Burton"
INDEX 01 54:55:02
 
AccurateRip
[CUETools log; Date: 28.02.2012 23:54:01; Version: 2.0.9]
Pregap length 00:00:72.
[CTDB TOCID: IdljuQOGUyZjVXrmfZGaj6g9aPI-] disk not present in database.
[AccurateRip ID: 00112c44-0065aaad-720dce07] found.
Track [ CRC ] Status
01 [4a78a324] (7/7) Accurately ripped
02 [c6600c8f] (7/7) Accurately ripped
03 [c2a610ea] (7/7) Accurately ripped
04 [7a669eb2] (7/7) Accurately ripped
05 [66c8c11d] (7/7) Accurately ripped
06 [b9bdbd13] (7/7) Accurately ripped
07 [ae198c85] (7/7) Accurately ripped
Track Peak [ CRC32 ] [W/O NULL]
-- 97,4 [6FD352E5] [122D27A3]
01 52,8 [61C64BE8] [91850F40]
02 66,0 [9D72C019] [179E66C9]
03 67,3 [8DD540D1] [6A6C3FFF]
04 85,2 [D9146B67] [17C0FE8C]
05 70,2 [FC5F1C94] [893A7A55]
06 97,4 [65DB074A] [BDF73A00]
07 80,1 [88A79975] [01F418CB]
02:56
492
Нет комментариев. Ваш будет первым!