Поиск

(Brazilian, Bossa Nova, Vocal Jazz) Gal Costa - Interpreta Caetano Veloso: Divino Maravilhoso [2CD] - 2006, FLAC (tracks+.cue) lossless

(Brazilian, Bossa Nova, Vocal Jazz) Gal Costa - Interpreta Caetano Veloso: Divino Maravilhoso [2CD] - 2006, FLAC (tracks+.cue) lossless
Треклист:
Gal Costa
Interpreta Caetano Veloso: Divino Maravilhoso [2CD] (2006)
.

.
Жанр: Brazilian, Bossa Nova, Vocal Jazz | Страна: Brazil
Дата выпуска диска: 2006 | Производитель диска: Universal Brazil
Аудио кодек: FLAC | Тип рипа: tracks+.cue | Битрейт аудио: lossless
+ JPG front & back scans
Формат: Compilation
Источник: eD2K
Продолжительность: 61:02 + 63:18
.
TRACKLiST:
 
Disc One
01. Coracao Vagabundo (Com Caetano Veloso) (2:23)
02. Avarandado (2:43)
03. Clara (Com Caetano Veloso) (1:45)
04. Mamae Coragem (2:29)
05. Baby (Com Caetano Veloso) (3:32)
06. Divino Maravilhoso (4:19)
07. Cinema Olympia (3:07)
08. Saudosimo (3:09)
09. Nao Identificado (3:18)
10. London, London (4:03)
11. Como 2 e 2 (Ao Vivo) (4:32)
12. Voce Nao Entende Nada (3:50)
13. Barato Modesto (3:27)
14. Deixa Sangrar (2:54)
15. Os Mais Doces Barbaros (Ao Vivo) (Com Caetano, Gil E Bethania) (6:40)
16. Sem Grilos (3:09)
17. O Bater Do Tambor (2:59)
18. Massa Real (2:43)
 
Disc Two
01. Forca Estranha (3:34)
02. Minha Voz, Minha Vida (3:37)
03. Meu Bem, Meu Mal (3:26)
04. Dom De Iludir (3:32)
05. A Mulher (1:53)
06. A Ra (3:50)
07. Luz Do Sol (4:02)
08. Tapete Magico (4:33)
09. Tigresa (4:13)
10. Qual E, Baiana (2:56)
11. Da Maior Importancia (5:12)
12. Sutis Diferenca (3:20)
13. Paula E Bebeto (2:04)
14. Eu Te Amo (Ao Vivo) (2:56)
15. Caras E Bocas (4:06)
16. Mae (3:24)
17. Lua, Lua, Lua, Lua (3:02)
18. O Amor (3:38)
.
 
EAC logs
 
CD1
EAC extraction logfile from 6. February 2007, 2:36 for CD
Gal Costa / Interpreta Caetano Veloso [Divino Maravilhoso] CD1
Used drive : TDK CDRW5200B Adapter: 1 ID: 1
Read mode : Secure with NO C2, accurate stream, disable cache
Read offset correction : 6
Overread into Lead-In and Lead-Out : No
Used output format : Internal WAV Routines
44.100 Hz; 16 Bit; Stereo
Other options :
Fill up missing offset samples with silence : Yes
Delete leading and trailing silent blocks : No
Native Win32 interface for Win NT & 2000
Track 1
Filename C:\01 - Coracao Vagabundo (Com Caetano Veloso).wav
Pre-gap length 0:00:02.00
Peak level 96.9 %
Track quality 99.9 %
Test CRC 114AC4A0
Copy CRC 114AC4A0
Copy OK
Track 2
Filename C:\02 - Avarandado.wav
Peak level 99.6 %
Track quality 100.0 %
Test CRC 33CCD92C
Copy CRC 33CCD92C
Copy OK
Track 3
Filename C:\03 - Clara (Com Caetano Veloso).wav
Peak level 94.3 %
Track quality 100.0 %
Test CRC ADB18472
Copy CRC ADB18472
Copy OK
Track 4
Filename C:\04 - Mamae Coragem.wav
Peak level 96.3 %
Track quality 100.0 %
Test CRC 29DB731A
Copy CRC 29DB731A
Copy OK
Track 5
Filename C:\05 - Baby (Com Caetano Veloso).wav
Peak level 97.4 %
Track quality 100.0 %
Test CRC 72AD3035
Copy CRC 72AD3035
Copy OK
Track 6
Filename C:\06 - Divino Maravilhoso.wav
Peak level 96.8 %
Track quality 99.9 %
Test CRC 9A9BF08D
Copy CRC 9A9BF08D
Copy OK
Track 7
Filename C:\07 - Cinema Olympia.wav
Peak level 96.0 %
Track quality 100.0 %
Test CRC 0264E67C
Copy CRC 0264E67C
Copy OK
Track 8
Filename C:\08 - Saudosimo.wav
Peak level 97.7 %
Track quality 99.9 %
Test CRC A26F9F2E
Copy CRC A26F9F2E
Copy OK
Track 9
Filename C:\09 - Nao Identificado.wav
Peak level 96.1 %
Track quality 100.0 %
Test CRC D5F4F3A5
Copy CRC D5F4F3A5
Copy OK
Track 10
Filename C:\10 - London, London.wav
Peak level 96.6 %
Track quality 100.0 %
Test CRC C2AEE4DC
Copy CRC C2AEE4DC
Copy OK
Track 11
Filename C:\11 - Como 2 e 2 (Ao Vivo).wav
Peak level 98.6 %
Track quality 100.0 %
Test CRC 837BC062
Copy CRC 837BC062
Copy OK
Track 12
Filename C:\12 - Voce Nao Entende Nada.wav
Peak level 98.6 %
Track quality 100.0 %
Test CRC 6007B752
Copy CRC 6007B752
Copy OK
Track 13
Filename C:\13 - Barato Modesto.wav
Peak level 96.5 %
Track quality 100.0 %
Test CRC E2C207C7
Copy CRC E2C207C7
Copy OK
Track 14
Filename C:\14 - Deixa Sangrar.wav
Peak level 96.9 %
Track quality 100.0 %
Test CRC 5AC48F64
Copy CRC 5AC48F64
Copy OK
Track 15
Filename C:\15 - Os Mais Doces Barbaros (Ao Vivo) (Com Caetano, Gil E Bethania).wav
Peak level 97.0 %
Track quality 100.0 %
Test CRC CB8B5663
Copy CRC CB8B5663
Copy OK
Track 16
Filename C:\16 - Sem Grilos.wav
Peak level 96.4 %
Track quality 99.9 %
Test CRC 7068D4E3
Copy CRC 7068D4E3
Copy OK
Track 17
Filename C:\17 - O Bater Do Tambor.wav
Peak level 97.4 %
Track quality 100.0 %
Test CRC C852D0EC
Copy CRC C852D0EC
Copy OK
Track 18
Filename C:\18 - Massa Real.wav
Peak level 99.1 %
Track quality 100.0 %
Test CRC A1EF99A6
Copy CRC A1EF99A6
Copy OK
No errors occured
End of status report
 
CD2
EAC extraction logfile from 8. February 2007, 22:49 for CD
Gal Costa / Interpreta Caetano Veloso [Divino Maravilhoso] CD2
Used drive : TDK CDRW5200B Adapter: 1 ID: 1
Read mode : Secure with NO C2, accurate stream, disable cache
Read offset correction : 6
Overread into Lead-In and Lead-Out : No
Used output format : Internal WAV Routines
44.100 Hz; 16 Bit; Stereo
Other options :
Fill up missing offset samples with silence : Yes
Delete leading and trailing silent blocks : No
Native Win32 interface for Win NT & 2000
Track 1
Filename C:\01 - Forca Estranha.wav
Pre-gap length 0:00:02.00
Peak level 99.9 %
Track quality 100.0 %
Test CRC 6A92044C
Copy CRC 6A92044C
Copy OK
Track 2
Filename C:\02 - Minha Voz, Minha Vida.wav
Peak level 98.4 %
Track quality 100.0 %
Test CRC 0E7A758F
Copy CRC 0E7A758F
Copy OK
Track 3
Filename C:\03 - Meu Bem, Meu Mal.wav
Peak level 99.9 %
Track quality 100.0 %
Test CRC B10B6A98
Copy CRC B10B6A98
Copy OK
Track 4
Filename C:\04 - Dom De Iludir.wav
Peak level 99.9 %
Track quality 100.0 %
Test CRC 094E1982
Copy CRC 094E1982
Copy OK
Track 5
Filename C:\05 - A Mulher.wav
Peak level 100.0 %
Track quality 99.9 %
Test CRC 9B9040BE
Copy CRC 9B9040BE
Copy OK
Track 6
Filename C:\06 - A Ra.wav
Peak level 99.1 %
Track quality 100.0 %
Test CRC 667DAF48
Copy CRC 667DAF48
Copy OK
Track 7
Filename C:\07 - Luz Do Sol.wav
Peak level 99.6 %
Track quality 100.0 %
Test CRC 7445A37B
Copy CRC 7445A37B
Copy OK
Track 8
Filename C:\08 - Tapete Magico.wav
Peak level 98.5 %
Track quality 100.0 %
Test CRC EA6EB4BF
Copy CRC EA6EB4BF
Copy OK
Track 9
Filename C:\09 - Tigresa.wav
Peak level 91.6 %
Track quality 100.0 %
Test CRC 048ACB91
Copy CRC 048ACB91
Copy OK
Track 10
Filename C:\10 - Qual E, Baiana .wav
Peak level 100.0 %
Track quality 99.9 %
Test CRC 7DB99BF4
Copy CRC 7DB99BF4
Copy OK
Track 11
Filename C:\11 - Da Maior Importancia.wav
Peak level 97.9 %
Track quality 100.0 %
Test CRC EC9B5948
Copy CRC EC9B5948
Copy OK
Track 12
Filename C:\12 - Sutis Diferenca.wav
Peak level 100.0 %
Track quality 100.0 %
Test CRC 74917399
Copy CRC 74917399
Copy OK
Track 13
Filename C:\13 - Paula E Bebeto.wav
Peak level 97.5 %
Track quality 100.0 %
Test CRC 97B8E68A
Copy CRC 97B8E68A
Copy OK
Track 14
Filename C:\14 - Eu Te Amo (Ao Vivo).wav
Peak level 98.9 %
Track quality 99.9 %
Test CRC 1B290583
Copy CRC 1B290583
Copy OK
Track 15
Filename C:\15 - Caras E Bocas.wav
Peak level 97.7 %
Track quality 100.0 %
Test CRC B2F6E6BC
Copy CRC B2F6E6BC
Copy OK
Track 16
Filename C:\16 - Mae.wav
Peak level 100.0 %
Track quality 100.0 %
Test CRC DF9620B7
Copy CRC DF9620B7
Copy OK
Track 17
Filename C:\17 - Lua, Lua, Lua, Lua.wav
Peak level 99.1 %
Track quality 100.0 %
Test CRC F1D9EAF4
Copy CRC F1D9EAF4
Copy OK
Track 18
Filename C:\18 - O Amor.wav
Peak level 100.0 %
Track quality 99.9 %
Test CRC 67756D2E
Copy CRC 67756D2E
Copy OK
No errors occured
End of status report
 
*.cue
 
CD1
PERFORMER "Gal Costa"
TITLE "Interpreta Caetano Veloso [Divino Maravilhoso] CD1"
FILE "01 - Coracao Vagabundo (Com Caetano Veloso).wav" WAVE
TRACK 01 AUDIO
TITLE "Coracao Vagabundo (Com Caetano Veloso)"
PERFORMER "Gal Costa"
INDEX 01 00:00:00
FILE "02 - Avarandado.wav" WAVE
TRACK 02 AUDIO
TITLE "Avarandado"
PERFORMER "Gal Costa"
INDEX 01 00:00:00
FILE "03 - Clara (Com Caetano Veloso).wav" WAVE
TRACK 03 AUDIO
TITLE "Clara (Com Caetano Veloso)"
PERFORMER "Gal Costa"
INDEX 01 00:00:00
FILE "04 - Mamae Coragem.wav" WAVE
TRACK 04 AUDIO
TITLE "Mamae Coragem"
PERFORMER "Gal Costa"
INDEX 01 00:00:00
FILE "05 - Baby (Com Caetano Veloso).wav" WAVE
TRACK 05 AUDIO
TITLE "Baby (Com Caetano Veloso)"
PERFORMER "Gal Costa"
INDEX 01 00:00:00
FILE "06 - Divino Maravilhoso.wav" WAVE
TRACK 06 AUDIO
TITLE "Divino Maravilhoso"
PERFORMER "Gal Costa"
INDEX 01 00:00:00
FILE "07 - Cinema Olympia.wav" WAVE
TRACK 07 AUDIO
TITLE "Cinema Olympia"
PERFORMER "Gal Costa"
INDEX 01 00:00:00
FILE "08 - Saudosimo.wav" WAVE
TRACK 08 AUDIO
TITLE "Saudosimo"
PERFORMER "Gal Costa"
INDEX 01 00:00:00
FILE "09 - Nao Identificado.wav" WAVE
TRACK 09 AUDIO
TITLE "Nao Identificado"
PERFORMER "Gal Costa"
INDEX 01 00:00:00
FILE "10 - London, London.wav" WAVE
TRACK 10 AUDIO
TITLE "London, London"
PERFORMER "Gal Costa"
INDEX 01 00:00:00
FILE "11 - Como 2 e 2 (Ao Vivo).wav" WAVE
TRACK 11 AUDIO
TITLE "Como 2 e 2 (Ao Vivo)"
PERFORMER "Gal Costa"
INDEX 01 00:00:00
FILE "12 - Voce Nao Entende Nada.wav" WAVE
TRACK 12 AUDIO
TITLE "Voce Nao Entende Nada"
PERFORMER "Gal Costa"
INDEX 01 00:00:00
FILE "13 - Barato Modesto.wav" WAVE
TRACK 13 AUDIO
TITLE "Barato Modesto"
PERFORMER "Gal Costa"
INDEX 01 00:00:00
FILE "14 - Deixa Sangrar.wav" WAVE
TRACK 14 AUDIO
TITLE "Deixa Sangrar"
PERFORMER "Gal Costa"
INDEX 01 00:00:00
FILE "15 - Os Mais Doces Barbaros (Ao Vivo) (Com Caetano, Gil E Bethania).wav" WAVE
TRACK 15 AUDIO
TITLE "Os Mais Doces Barbaros (Ao Vivo) (Com Caetano, Gil E Bethania)"
PERFORMER "Gal Costa"
INDEX 01 00:00:00
FILE "16 - Sem Grilos.wav" WAVE
TRACK 16 AUDIO
TITLE "Sem Grilos"
PERFORMER "Gal Costa"
INDEX 01 00:00:00
FILE "17 - O Bater Do Tambor.wav" WAVE
TRACK 17 AUDIO
TITLE "O Bater Do Tambor"
PERFORMER "Gal Costa"
INDEX 01 00:00:00
FILE "18 - Massa Real.wav" WAVE
TRACK 18 AUDIO
TITLE "Massa Real"
PERFORMER "Gal Costa"
INDEX 01 00:00:00
 
CD2
PERFORMER "Gal Costa"
TITLE "Interpreta Caetano Veloso [Divino Maravilhoso] CD2"
FILE "01 - Forca Estranha.wav" WAVE
TRACK 01 AUDIO
TITLE "Forca Estranha"
PERFORMER "Gal Costa"
INDEX 01 00:00:00
FILE "02 - Minha Voz, Minha Vida.wav" WAVE
TRACK 02 AUDIO
TITLE "Minha Voz, Minha Vida"
PERFORMER "Gal Costa"
INDEX 01 00:00:00
FILE "03 - Meu Bem, Meu Mal.wav" WAVE
TRACK 03 AUDIO
TITLE "Meu Bem, Meu Mal"
PERFORMER "Gal Costa"
INDEX 01 00:00:00
FILE "04 - Dom De Iludir.wav" WAVE
TRACK 04 AUDIO
TITLE "Dom De Iludir"
PERFORMER "Gal Costa"
INDEX 01 00:00:00
FILE "05 - A Mulher.wav" WAVE
TRACK 05 AUDIO
TITLE "A Mulher"
PERFORMER "Gal Costa"
INDEX 01 00:00:00
FILE "06 - A Ra.wav" WAVE
TRACK 06 AUDIO
TITLE "A Ra"
PERFORMER "Gal Costa"
INDEX 01 00:00:00
FILE "07 - Luz Do Sol.wav" WAVE
TRACK 07 AUDIO
TITLE "Luz Do Sol"
PERFORMER "Gal Costa"
INDEX 01 00:00:00
FILE "08 - Tapete Magico.wav" WAVE
TRACK 08 AUDIO
TITLE "Tapete Magico"
PERFORMER "Gal Costa"
INDEX 01 00:00:00
FILE "09 - Tigresa.wav" WAVE
TRACK 09 AUDIO
TITLE "Tigresa"
PERFORMER "Gal Costa"
INDEX 01 00:00:00
FILE "10 - Qual E, Baiana .wav" WAVE
TRACK 10 AUDIO
TITLE "Qual E, Baiana?"
PERFORMER "Gal Costa"
INDEX 01 00:00:00
FILE "11 - Da Maior Importancia.wav" WAVE
TRACK 11 AUDIO
TITLE "Da Maior Importancia"
PERFORMER "Gal Costa"
INDEX 01 00:00:00
FILE "12 - Sutis Diferenca.wav" WAVE
TRACK 12 AUDIO
TITLE "Sutis Diferenca"
PERFORMER "Gal Costa"
INDEX 01 00:00:00
FILE "13 - Paula E Bebeto.wav" WAVE
TRACK 13 AUDIO
TITLE "Paula E Bebeto"
PERFORMER "Gal Costa"
INDEX 01 00:00:00
FILE "14 - Eu Te Amo (Ao Vivo).wav" WAVE
TRACK 14 AUDIO
TITLE "Eu Te Amo (Ao Vivo)"
PERFORMER "Gal Costa"
INDEX 01 00:00:00
FILE "15 - Caras E Bocas.wav" WAVE
TRACK 15 AUDIO
TITLE "Caras E Bocas"
PERFORMER "Gal Costa"
INDEX 01 00:00:00
FILE "16 - Mae.wav" WAVE
TRACK 16 AUDIO
TITLE "Mae"
PERFORMER "Gal Costa"
INDEX 01 00:00:00
FILE "17 - Lua, Lua, Lua, Lua.wav" WAVE
TRACK 17 AUDIO
TITLE "Lua, Lua, Lua, Lua"
PERFORMER "Gal Costa"
INDEX 01 00:00:00
FILE "18 - O Amor.wav" WAVE
TRACK 18 AUDIO
TITLE "O Amor"
PERFORMER "Gal Costa"
INDEX 01 00:00:00
 
Audiochecker’s logs
 
CD1
AUDIOCHECKER v2.0 beta (build 457) - by Dester - opdester@freemail.hu
~~~~~~~~~~~~~~~~~~~~~~~~~~~~~~~~~~
Started at: вторник, 18. 01. 2011. - 2:11.28
18 files found
01 -===- F:\Gal Costa - Interpreta Caetano Veloso [Divino Maravilhoso] 2006 [flac]\CD1\01 - Coracao Vagabundo (Com Caetano Veloso).flac
Extracted successfully
Conclusion: this track is CDDA with probability 100%
Tempfile successfully deleted.
02 -===- F:\Gal Costa - Interpreta Caetano Veloso [Divino Maravilhoso] 2006 [flac]\CD1\02 - Avarandado.flac
Extracted successfully
Conclusion: this track is CDDA with probability 99%
Tempfile successfully deleted.
03 -===- F:\Gal Costa - Interpreta Caetano Veloso [Divino Maravilhoso] 2006 [flac]\CD1\03 - Clara (Com Caetano Veloso).flac
Extracted successfully
Conclusion: this track is CDDA with probability 100%
Tempfile successfully deleted.
04 -===- F:\Gal Costa - Interpreta Caetano Veloso [Divino Maravilhoso] 2006 [flac]\CD1\04 - Mamae Coragem.flac
Extracted successfully
Conclusion: this track is CDDA with probability 99%
Tempfile successfully deleted.
05 -===- F:\Gal Costa - Interpreta Caetano Veloso [Divino Maravilhoso] 2006 [flac]\CD1\05 - Baby (Com Caetano Veloso).flac
Extracted successfully
Conclusion: this track is CDDA with probability 100%
Tempfile successfully deleted.
06 -===- F:\Gal Costa - Interpreta Caetano Veloso [Divino Maravilhoso] 2006 [flac]\CD1\06 - Divino Maravilhoso.flac
Extracted successfully
Conclusion: this track is CDDA with probability 100%
Tempfile successfully deleted.
07 -===- F:\Gal Costa - Interpreta Caetano Veloso [Divino Maravilhoso] 2006 [flac]\CD1\07 - Cinema Olympia.flac
Extracted successfully
Conclusion: this track is CDDA with probability 99%
Tempfile successfully deleted.
08 -===- F:\Gal Costa - Interpreta Caetano Veloso [Divino Maravilhoso] 2006 [flac]\CD1\08 - Saudosimo.flac
Extracted successfully
Conclusion: this track is CDDA with probability 100%
Tempfile successfully deleted.
09 -===- F:\Gal Costa - Interpreta Caetano Veloso [Divino Maravilhoso] 2006 [flac]\CD1\09 - Nao Identificado.flac
Extracted successfully
Conclusion: this track is CDDA with probability 99%
Tempfile successfully deleted.
10 -===- F:\Gal Costa - Interpreta Caetano Veloso [Divino Maravilhoso] 2006 [flac]\CD1\10 - London, London.flac
Extracted successfully
Conclusion: this track is CDDA with probability 100%
Tempfile successfully deleted.
11 -===- F:\Gal Costa - Interpreta Caetano Veloso [Divino Maravilhoso] 2006 [flac]\CD1\11 - Como 2 e 2 (Ao Vivo).flac
Extracted successfully
Conclusion: this track is CDDA with probability 100%
Tempfile successfully deleted.
12 -===- F:\Gal Costa - Interpreta Caetano Veloso [Divino Maravilhoso] 2006 [flac]\CD1\12 - Voce Nao Entende Nada.flac
Extracted successfully
Conclusion: this track is CDDA with probability 100%
Tempfile successfully deleted.
13 -===- F:\Gal Costa - Interpreta Caetano Veloso [Divino Maravilhoso] 2006 [flac]\CD1\13 - Barato Modesto.flac
Extracted successfully
Conclusion: this track is CDDA with probability 100%
Tempfile successfully deleted.
14 -===- F:\Gal Costa - Interpreta Caetano Veloso [Divino Maravilhoso] 2006 [flac]\CD1\14 - Deixa Sangrar.flac
Extracted successfully
Conclusion: this track is CDDA with probability 100%
Tempfile successfully deleted.
15 -===- F:\Gal Costa - Interpreta Caetano Veloso [Divino Maravilhoso] 2006 [flac]\CD1\15 - Os Mais Doces Barbaros (Ao Vivo) (Com Caetano, Gil E Bethania).flac
Extracted successfully
Conclusion: this track is CDDA with probability 100%
Tempfile successfully deleted.
16 -===- F:\Gal Costa - Interpreta Caetano Veloso [Divino Maravilhoso] 2006 [flac]\CD1\16 - Sem Grilos.flac
Extracted successfully
Conclusion: this track is CDDA with probability 100%
Tempfile successfully deleted.
17 -===- F:\Gal Costa - Interpreta Caetano Veloso [Divino Maravilhoso] 2006 [flac]\CD1\17 - O Bater Do Tambor.flac
Extracted successfully
Conclusion: this track is CDDA with probability 99%
Tempfile successfully deleted.
18 -===- F:\Gal Costa - Interpreta Caetano Veloso [Divino Maravilhoso] 2006 [flac]\CD1\18 - Massa Real.flac
Extracted successfully
Conclusion: this track is CDDA with probability 100%
Tempfile successfully deleted.
Finished at: вторник, 18. 01. 2011. - 2:40.09 (operation time: 0:28.41)
 
CD2
AUDIOCHECKER v2.0 beta (build 457) - by Dester - opdester@freemail.hu
~~~~~~~~~~~~~~~~~~~~~~~~~~~~~~~~~~
Started at: вторник, 18. 01. 2011. - 13:44.23
18 files found
01 -===- F:\Gal Costa - Interpreta Caetano Veloso [Divino Maravilhoso] 2006 [flac]\CD2\01 - Forca Estranha.flac
Extracted successfully
Conclusion: this track is CDDA with probability 100%
Tempfile successfully deleted.
02 -===- F:\Gal Costa - Interpreta Caetano Veloso [Divino Maravilhoso] 2006 [flac]\CD2\02 - Minha Voz, Minha Vida.flac
Extracted successfully
Conclusion: this track is CDDA with probability 99%
Tempfile successfully deleted.
03 -===- F:\Gal Costa - Interpreta Caetano Veloso [Divino Maravilhoso] 2006 [flac]\CD2\03 - Meu Bem, Meu Mal.flac
Extracted successfully
Conclusion: this track is CDDA with probability 100%
Tempfile successfully deleted.
04 -===- F:\Gal Costa - Interpreta Caetano Veloso [Divino Maravilhoso] 2006 [flac]\CD2\04 - Dom De Iludir.flac
Extracted successfully
Conclusion: this track is CDDA with probability 76%
Tempfile successfully deleted.
05 -===- F:\Gal Costa - Interpreta Caetano Veloso [Divino Maravilhoso] 2006 [flac]\CD2\05 - A Mulher.flac
Extracted successfully
Conclusion: this track is CDDA with probability 100%
Tempfile successfully deleted.
06 -===- F:\Gal Costa - Interpreta Caetano Veloso [Divino Maravilhoso] 2006 [flac]\CD2\06 - A Ra.flac
Extracted successfully
Conclusion: this track is CDDA with probability 100%
Tempfile successfully deleted.
07 -===- F:\Gal Costa - Interpreta Caetano Veloso [Divino Maravilhoso] 2006 [flac]\CD2\07 - Luz Do Sol.flac
Extracted successfully
Conclusion: this track is CDDA with probability 85%
Tempfile successfully deleted.
08 -===- F:\Gal Costa - Interpreta Caetano Veloso [Divino Maravilhoso] 2006 [flac]\CD2\08 - Tapete Magico.flac
Extracted successfully
Conclusion: this track is CDDA with probability 99%
Tempfile successfully deleted.
09 -===- F:\Gal Costa - Interpreta Caetano Veloso [Divino Maravilhoso] 2006 [flac]\CD2\09 - Tigresa.flac
Extracted successfully
Conclusion: this track is CDDA with probability 100%
Tempfile successfully deleted.
10 -===- F:\Gal Costa - Interpreta Caetano Veloso [Divino Maravilhoso] 2006 [flac]\CD2\10 - Qual E, Baiana .flac
Extracted successfully
Conclusion: this track is CDDA with probability 100%
Tempfile successfully deleted.
11 -===- F:\Gal Costa - Interpreta Caetano Veloso [Divino Maravilhoso] 2006 [flac]\CD2\11 - Da Maior Importancia.flac
Extracted successfully
Conclusion: this track is CDDA with probability 100%
Tempfile successfully deleted.
12 -===- F:\Gal Costa - Interpreta Caetano Veloso [Divino Maravilhoso] 2006 [flac]\CD2\12 - Sutis Diferenca.flac
Extracted successfully
Conclusion: this track is CDDA with probability 100%
Tempfile successfully deleted.
13 -===- F:\Gal Costa - Interpreta Caetano Veloso [Divino Maravilhoso] 2006 [flac]\CD2\13 - Paula E Bebeto.flac
Extracted successfully
Conclusion: this track is CDDA with probability 100%
Tempfile successfully deleted.
14 -===- F:\Gal Costa - Interpreta Caetano Veloso [Divino Maravilhoso] 2006 [flac]\CD2\14 - Eu Te Amo (Ao Vivo).flac
Extracted successfully
Conclusion: this track is CDDA with probability 100%
Tempfile successfully deleted.
15 -===- F:\Gal Costa - Interpreta Caetano Veloso [Divino Maravilhoso] 2006 [flac]\CD2\15 - Caras E Bocas.flac
Extracted successfully
Conclusion: this track is CDDA with probability 99%
Tempfile successfully deleted.
16 -===- F:\Gal Costa - Interpreta Caetano Veloso [Divino Maravilhoso] 2006 [flac]\CD2\16 - Mae.flac
Extracted successfully
Conclusion: this track is CDDA with probability 100%
Tempfile successfully deleted.
17 -===- F:\Gal Costa - Interpreta Caetano Veloso [Divino Maravilhoso] 2006 [flac]\CD2\17 - Lua, Lua, Lua, Lua.flac
Extracted successfully
Conclusion: this track is CDDA with probability 100%
Tempfile successfully deleted.
18 -===- F:\Gal Costa - Interpreta Caetano Veloso [Divino Maravilhoso] 2006 [flac]\CD2\18 - O Amor.flac
Extracted successfully
Conclusion: this track is CDDA with probability 100%
Tempfile successfully deleted.
Finished at: вторник, 18. 01. 2011. - 14:12.27 (operation time: 0:28.04)
.Сидирую до первых 10-ти скачавших. Далее раздача поддерживается силами скачавших.
Скачали сами - дайте скачать другим.
20:08
263
Нет комментариев. Ваш будет первым!