Поиск

(Retro, Latin) Trio Los Panchos - Music Legend - 2000, FLAC (tracks+.cue) lossless

Trio Los Panchos / Music Legend
Жанр: Retro, Latin
Страна-производитель диска: Rissian
Год издания диска: 2000
Издатель (лейбл): Legal Records
Номер по каталогу: ЛЦ-17/СР-001ТБ
Страна: Mexico
Аудио кодек: FLAC (*.flac)
Тип рипа: tracks+.cue
Битрейт аудио: lossless
Продолжительность: 01:13:84
Источник (релизер): собственный релиз
Наличие сканов в содержимом раздачи: да
Треклист:
01. Besame Mucho
02. Ensueno De Amor
03. QuienSera
04. Ya Es Muy Tarde
05. Quiereme Mucho
06. No Me Quieras Tanto
07. Quizas Quizas Quizas
08. Dime ue No Es verdad
09. Historia De Un Amor
10. La Paloma
11. Siboney
12. La Mucura
13. La Malaguena
14. Solamente Una Vez
15. La Ultima Noche
16. La Bamba
17. Amor
18. Mar Y Cielo
19. Alla En El Rancho Grande Y Cielito Lindo
20. Historia De Un Amor (With Eydie Gorme)
21. Rayito De Luna
22. Caminemos
23. Alma Corazony Vida
24. Caminito
25. A Cucaracho
26. El Pacador
27. Noche De Ronda
28. Esperame En El Cielo
 
Лог создания рипа
Exact Audio Copy V0.99 prebeta 5 from 4. May 2009
EAC extraction logfile from 16. January 2011, 7:26
Trio Los Panchos / Music Legend
Used drive : TSSTcorpCDDVDW TS-L633M Adapter: 1 ID: 0
Read mode : Secure
Utilize accurate stream : Yes
Defeat audio cache : Yes
Make use of C2 pointers : No
Read offset correction : 6
Overread into Lead-In and Lead-Out : No
Fill up missing offset samples with silence : Yes
Delete leading and trailing silent blocks : No
Null samples used in CRC calculations : Yes
Used interface : Native Win32 interface for Win NT & 2000
Gap handling : Appended to previous track
Used output format : User Defined Encoder
Selected bitrate : 128 kBit/s
Quality : High
Add ID3 tag : No
Command line compressor : C:\Users\АОА\Desktop\Новая папка\bin\flac.exe
Additional command line options : -8 -V -T "ARTIST=%a" -T "TITLE=%t" -T "ALBUM=%g" -T "DATE=%y" -T "TRACKNUMBER=%n" -T "GENRE=%m" -T "COMMENT=EAC FLAC -8" %s
TOC of the extracted CD
Track | Start | Length | Start sector | End sector
---------------------------------------------------------
1 | 0:00.00 | 2:59.29 | 0 | 13453
2 | 2:59.29 | 2:34.69 | 13454 | 25072
3 | 5:34.23 | 3:06.41 | 25073 | 39063
4 | 8:40.64 | 2:43.66 | 39064 | 51354
5 | 11:24.55 | 2:45.20 | 51355 | 63749
6 | 14:10.00 | 3:05.29 | 63750 | 77653
7 | 17:15.29 | 2:51.57 | 77654 | 90535
8 | 20:07.11 | 2:47.30 | 90536 | 103090
9 | 22:54.41 | 2:20.02 | 103091 | 113592
10 | 25:14.43 | 3:15.57 | 113593 | 128274
11 | 28:30.25 | 2:51.28 | 128275 | 141127
12 | 31:21.53 | 2:33.70 | 141128 | 152672
13 | 33:55.48 | 3:22.05 | 152673 | 167827
14 | 37:17.53 | 2:36.40 | 167828 | 179567
15 | 39:54.18 | 2:50.38 | 179568 | 192355
16 | 42:44.56 | 3:09.56 | 192356 | 206586
17 | 45:54.37 | 3:15.37 | 206587 | 221248
18 | 49:09.74 | 2:49.35 | 221249 | 233958
19 | 51:59.34 | 2:55.17 | 233959 | 247100
20 | 54:54.51 | 2:27.72 | 247101 | 258197
21 | 57:22.48 | 2:43.53 | 258198 | 270475
22 | 60:06.26 | 2:50.33 | 270476 | 283258
23 | 62:56.59 | 3:12.31 | 283259 | 297689
24 | 66:09.15 | 2:32.29 | 297690 | 309118
25 | 68:41.44 | 3:00.58 | 309119 | 322676
26 | 71:42.27 | 2:25.22 | 322677 | 333573
27 | 74:07.49 | 3:14.22 | 333574 | 348145
28 | 77:21.71 | 2:40.00 | 348146 | 360145
Track 1
Filename C:\Users\АОА\Desktop\01. Trio Los Panchos – Besame Mucho.wav
Pre-gap length 0:00:02.00
Peak level 100.0 %
Track quality 100.0 %
Test CRC DA7B905A
Copy CRC DA7B905A
Track not present in AccurateRip database
Copy OK
Track 2
Filename C:\Users\АОА\Desktop\02. Trio Los Panchos – Ensueno De Amor.wav
Pre-gap length 0:00:00.18
Peak level 100.0 %
Track quality 100.0 %
Test CRC 24EBFCE2
Copy CRC 24EBFCE2
Track not present in AccurateRip database
Copy OK
Track 3
Filename C:\Users\АОА\Desktop\03. Trio Los Panchos – QuienSera.wav
Pre-gap length 0:00:00.24
Peak level 99.8 %
Track quality 100.0 %
Test CRC 2527BA01
Copy CRC 2527BA01
Track not present in AccurateRip database
Copy OK
Track 4
Filename C:\Users\АОА\Desktop\04. Trio Los Panchos – Ya Es Muy Tarde.wav
Pre-gap length 0:00:00.30
Peak level 79.1 %
Track quality 100.0 %
Test CRC CE5C8EAB
Copy CRC CE5C8EAB
Track not present in AccurateRip database
Copy OK
Track 5
Filename C:\Users\АОА\Desktop\05. Trio Los Panchos – Quiereme Mucho.wav
Pre-gap length 0:00:00.20
Peak level 100.0 %
Track quality 100.0 %
Test CRC BA8D9B93
Copy CRC BA8D9B93
Track not present in AccurateRip database
Copy OK
Track 6
Filename C:\Users\АОА\Desktop\06. Trio Los Panchos – No Me Quieras Tanto.wav
Pre-gap length 0:00:00.16
Peak level 83.4 %
Track quality 100.0 %
Test CRC 478E1AF2
Copy CRC 478E1AF2
Track not present in AccurateRip database
Copy OK
Track 7
Filename C:\Users\АОА\Desktop\07. Trio Los Panchos – Quizas Quizas Quizas.wav
Pre-gap length 0:00:00.21
Peak level 99.9 %
Track quality 100.0 %
Test CRC 2616DDC8
Copy CRC 2616DDC8
Track not present in AccurateRip database
Copy OK
Track 8
Filename C:\Users\АОА\Desktop\08. Trio Los Panchos – Dime ue No Es verdad.wav
Pre-gap length 0:00:00.18
Peak level 82.5 %
Track quality 100.0 %
Test CRC 5ACD85D4
Copy CRC 5ACD85D4
Track not present in AccurateRip database
Copy OK
Track 9
Filename C:\Users\АОА\Desktop\09. Trio Los Panchos – Historia De Un Amor.wav
Pre-gap length 0:00:00.20
Peak level 99.9 %
Track quality 100.0 %
Test CRC EAA060C3
Copy CRC EAA060C3
Track not present in AccurateRip database
Copy OK
Track 10
Filename C:\Users\АОА\Desktop\10. Trio Los Panchos – La Paloma.wav
Pre-gap length 0:00:00.20
Peak level 100.0 %
Track quality 100.0 %
Test CRC EB1BC0BC
Copy CRC EB1BC0BC
Track not present in AccurateRip database
Copy OK
Track 11
Filename C:\Users\АОА\Desktop\11. Trio Los Panchos – Siboney.wav
Pre-gap length 0:00:00.16
Peak level 99.7 %
Track quality 100.0 %
Test CRC 5E81155C
Copy CRC 5E81155C
Track not present in AccurateRip database
Copy OK
Track 12
Filename C:\Users\АОА\Desktop\12. Trio Los Panchos – La Mucura.wav
Pre-gap length 0:00:00.17
Peak level 99.5 %
Track quality 100.0 %
Test CRC 00D4A818
Copy CRC 00D4A818
Track not present in AccurateRip database
Copy OK
Track 13
Filename C:\Users\АОА\Desktop\13. Trio Los Panchos – La Malaguena.wav
Pre-gap length 0:00:00.14
Peak level 87.5 %
Track quality 100.0 %
Test CRC 28B61C1C
Copy CRC 28B61C1C
Track not present in AccurateRip database
Copy OK
Track 14
Filename C:\Users\АОА\Desktop\14. Trio Los Panchos – Solamente Una Vez.wav
Pre-gap length 0:00:00.14
Peak level 81.5 %
Track quality 100.0 %
Test CRC 9F1EE38C
Copy CRC 9F1EE38C
Track not present in AccurateRip database
Copy OK
Track 15
Filename C:\Users\АОА\Desktop\15. Trio Los Panchos – La Ultima Noche.wav
Pre-gap length 0:00:00.22
Peak level 80.3 %
Track quality 100.0 %
Test CRC 5E9DAF00
Copy CRC 5E9DAF00
Track not present in AccurateRip database
Copy OK
Track 16
Filename C:\Users\АОА\Desktop\16. Trio Los Panchos – La Bamba.wav
Pre-gap length 0:00:00.20
Peak level 93.2 %
Track quality 100.0 %
Test CRC 7805232C
Copy CRC 7805232C
Track not present in AccurateRip database
Copy OK
Track 17
Filename C:\Users\АОА\Desktop\17. Trio Los Panchos – Amor.wav
Pre-gap length 0:00:00.14
Peak level 89.6 %
Track quality 100.0 %
Test CRC 040C0EA3
Copy CRC 040C0EA3
Track not present in AccurateRip database
Copy OK
Track 18
Filename C:\Users\АОА\Desktop\18. Trio Los Panchos – Mar Y Cielo.wav
Pre-gap length 0:00:00.17
Peak level 60.8 %
Track quality 100.0 %
Test CRC 8483D683
Copy CRC 8483D683
Track not present in AccurateRip database
Copy OK
Track 19
Filename C:\Users\АОА\Desktop\19. Trio Los Panchos – Alla En El Rancho Grande Y Cielito Lindo.wav
Pre-gap length 0:00:00.13
Peak level 92.6 %
Track quality 100.0 %
Test CRC 718217AB
Copy CRC 718217AB
Track not present in AccurateRip database
Copy OK
Track 20
Filename C:\Users\АОА\Desktop\20. Trio Los Panchos – Historia De Un Amor (With Eydie Gorme).wav
Pre-gap length 0:00:00.14
Peak level 84.7 %
Track quality 100.0 %
Test CRC 7D1EE5D9
Copy CRC 7D1EE5D9
Track not present in AccurateRip database
Copy OK
Track 21
Filename C:\Users\АОА\Desktop\21. Trio Los Panchos – Rayito De Luna.wav
Pre-gap length 0:00:00.25
Peak level 86.3 %
Track quality 99.9 %
Test CRC EAB5B17F
Copy CRC EAB5B17F
Track not present in AccurateRip database
Copy OK
Track 22
Filename C:\Users\АОА\Desktop\22. Trio Los Panchos – Caminemos.wav
Pre-gap length 0:00:00.13
Peak level 99.9 %
Track quality 100.0 %
Test CRC 1586CC67
Copy CRC 1586CC67
Track not present in AccurateRip database
Copy OK
Track 23
Filename C:\Users\АОА\Desktop\23. Trio Los Panchos – Alma Corazony Vida.wav
Pre-gap length 0:00:00.16
Peak level 84.7 %
Track quality 100.0 %
Test CRC 0147C03E
Copy CRC 0147C03E
Track not present in AccurateRip database
Copy OK
Track 24
Filename C:\Users\АОА\Desktop\24. Trio Los Panchos – Caminito.wav
Pre-gap length 0:00:00.20
Peak level 75.6 %
Track quality 100.0 %
Test CRC 3C8EF6A7
Copy CRC 3C8EF6A7
Track not present in AccurateRip database
Copy OK
Track 25
Filename C:\Users\АОА\Desktop\25. Trio Los Panchos – A Cucaracho.wav
Pre-gap length 0:00:00.16
Peak level 99.9 %
Track quality 100.0 %
Test CRC 4C682E74
Copy CRC 4C682E74
Track not present in AccurateRip database
Copy OK
Track 26
Filename C:\Users\АОА\Desktop\26. Trio Los Panchos – El Pacador.wav
Pre-gap length 0:00:00.17
Peak level 77.5 %
Track quality 100.0 %
Test CRC F484978E
Copy CRC F484978E
Track not present in AccurateRip database
Copy OK
Track 27
Filename C:\Users\АОА\Desktop\27. Trio Los Panchos – Noche De Ronda.wav
Pre-gap length 0:00:00.44
Peak level 73.8 %
Track quality 100.0 %
Test CRC FEB953C5
Copy CRC FEB953C5
Track not present in AccurateRip database
Copy OK
Track 28
Filename C:\Users\АОА\Desktop\28. Trio Los Panchos – Esperame En El Cielo.wav
Pre-gap length 0:00:01.05
Peak level 64.0 %
Track quality 100.0 %
Test CRC B9D585B2
Copy CRC B9D585B2
Track not present in AccurateRip database
Copy OK
None of the tracks are present in the AccurateRip database
No errors occurred
End of status report
 
Содержание индексной карты (.CUE)
REM GENRE Latin
REM DATE 2000
REM DISCID A412C11C
REM COMMENT "ExactAudioCopy v0.99pb5"
PERFORMER "Trio Los Panchos"
TITLE "Music Legend"
FILE "01. Trio Los Panchos – Besame Mucho.wav" WAVE
TRACK 01 AUDIO
TITLE "Besame Mucho"
PERFORMER "Trio Los Panchos"
INDEX 01 00:00:00
TRACK 02 AUDIO
TITLE "Ensueno De Amor"
PERFORMER "Trio Los Panchos"
INDEX 00 02:59:15
FILE "02. Trio Los Panchos – Ensueno De Amor.wav" WAVE
INDEX 01 00:00:00
TRACK 03 AUDIO
TITLE "QuienSera"
PERFORMER "Trio Los Panchos"
INDEX 00 02:34:51
FILE "03. Trio Los Panchos – QuienSera.wav" WAVE
INDEX 01 00:00:00
TRACK 04 AUDIO
TITLE "Ya Es Muy Tarde"
PERFORMER "Trio Los Panchos"
INDEX 00 03:06:18
FILE "04. Trio Los Panchos – Ya Es Muy Tarde.wav" WAVE
INDEX 01 00:00:00
TRACK 05 AUDIO
TITLE "Quiereme Mucho"
PERFORMER "Trio Los Panchos"
INDEX 00 02:43:51
FILE "05. Trio Los Panchos – Quiereme Mucho.wav" WAVE
INDEX 01 00:00:00
TRACK 06 AUDIO
TITLE "No Me Quieras Tanto"
PERFORMER "Trio Los Panchos"
INDEX 00 02:45:08
FILE "06. Trio Los Panchos – No Me Quieras Tanto.wav" WAVE
INDEX 01 00:00:00
TRACK 07 AUDIO
TITLE "Quizas Quizas Quizas "
PERFORMER "Trio Los Panchos"
INDEX 00 03:05:13
FILE "07. Trio Los Panchos – Quizas Quizas Quizas.wav" WAVE
INDEX 01 00:00:00
TRACK 08 AUDIO
TITLE "Dime ue No Es verdad"
PERFORMER "Trio Los Panchos"
INDEX 00 02:51:43
FILE "08. Trio Los Panchos – Dime ue No Es verdad.wav" WAVE
INDEX 01 00:00:00
TRACK 09 AUDIO
TITLE "Historia De Un Amor"
PERFORMER "Trio Los Panchos"
INDEX 00 02:47:15
FILE "09. Trio Los Panchos – Historia De Un Amor.wav" WAVE
INDEX 01 00:00:00
TRACK 10 AUDIO
TITLE "La Paloma"
PERFORMER "Trio Los Panchos"
INDEX 00 02:19:62
FILE "10. Trio Los Panchos – La Paloma.wav" WAVE
INDEX 01 00:00:00
TRACK 11 AUDIO
TITLE "Siboney"
PERFORMER "Trio Los Panchos"
INDEX 00 03:15:45
FILE "11. Trio Los Panchos – Siboney.wav" WAVE
INDEX 01 00:00:00
TRACK 12 AUDIO
TITLE "La Mucura"
PERFORMER "Trio Los Panchos"
INDEX 00 02:51:15
FILE "12. Trio Los Panchos – La Mucura.wav" WAVE
INDEX 01 00:00:00
TRACK 13 AUDIO
TITLE "La Malaguena"
PERFORMER "Trio Los Panchos"
INDEX 00 02:33:59
FILE "13. Trio Los Panchos – La Malaguena.wav" WAVE
INDEX 01 00:00:00
TRACK 14 AUDIO
TITLE "Solamente Una Vez"
PERFORMER "Trio Los Panchos"
INDEX 00 03:21:69
FILE "14. Trio Los Panchos – Solamente Una Vez.wav" WAVE
INDEX 01 00:00:00
TRACK 15 AUDIO
TITLE "La Ultima Noche"
PERFORMER "Trio Los Panchos"
INDEX 00 02:36:23
FILE "15. Trio Los Panchos – La Ultima Noche.wav" WAVE
INDEX 01 00:00:00
TRACK 16 AUDIO
TITLE "La Bamba"
PERFORMER "Trio Los Panchos"
INDEX 00 02:50:23
FILE "16. Trio Los Panchos – La Bamba.wav" WAVE
INDEX 01 00:00:00
TRACK 17 AUDIO
TITLE "Amor"
PERFORMER "Trio Los Panchos"
INDEX 00 03:09:45
FILE "17. Trio Los Panchos – Amor.wav" WAVE
INDEX 01 00:00:00
TRACK 18 AUDIO
TITLE "Mar Y Cielo"
PERFORMER "Trio Los Panchos"
INDEX 00 03:15:24
FILE "18. Trio Los Panchos – Mar Y Cielo.wav" WAVE
INDEX 01 00:00:00
TRACK 19 AUDIO
TITLE "Alla En El Rancho Grande Y Cielito Lindo"
PERFORMER "Trio Los Panchos"
INDEX 00 02:49:25
FILE "19. Trio Los Panchos – Alla En El Rancho Grande Y Cielito Lindo.wav" WAVE
INDEX 01 00:00:00
TRACK 20 AUDIO
TITLE "Historia De Un Amor (With Eydie Gorme)"
PERFORMER "Trio Los Panchos"
INDEX 00 02:55:06
FILE "20. Trio Los Panchos – Historia De Un Amor (With Eydie Gorme).wav" WAVE
INDEX 01 00:00:00
TRACK 21 AUDIO
TITLE "Rayito De Luna"
PERFORMER "Trio Los Panchos"
INDEX 00 02:27:53
FILE "21. Trio Los Panchos – Rayito De Luna.wav" WAVE
INDEX 01 00:00:00
TRACK 22 AUDIO
TITLE "Caminemos"
PERFORMER "Trio Los Panchos"
INDEX 00 02:43:43
FILE "22. Trio Los Panchos – Caminemos.wav" WAVE
INDEX 01 00:00:00
TRACK 23 AUDIO
TITLE "Alma Corazony Vida"
PERFORMER "Trio Los Panchos"
INDEX 00 02:50:21
FILE "23. Trio Los Panchos – Alma Corazony Vida.wav" WAVE
INDEX 01 00:00:00
TRACK 24 AUDIO
TITLE "Caminito"
PERFORMER "Trio Los Panchos"
INDEX 00 03:12:16
FILE "24. Trio Los Panchos – Caminito.wav" WAVE
INDEX 01 00:00:00
TRACK 25 AUDIO
TITLE "A Cucaracho"
PERFORMER "Trio Los Panchos"
INDEX 00 02:32:17
FILE "25. Trio Los Panchos – A Cucaracho.wav" WAVE
INDEX 01 00:00:00
TRACK 26 AUDIO
TITLE "El Pacador"
PERFORMER "Trio Los Panchos"
INDEX 00 03:00:45
FILE "26. Trio Los Panchos – El Pacador.wav" WAVE
INDEX 01 00:00:00
TRACK 27 AUDIO
TITLE "Noche De Ronda"
PERFORMER "Trio Los Panchos"
INDEX 00 02:24:64
FILE "27. Trio Los Panchos – Noche De Ronda.wav" WAVE
INDEX 01 00:00:00
TRACK 28 AUDIO
TITLE "Esperame En El Cielo"
PERFORMER "Trio Los Panchos"
INDEX 00 03:13:18
FILE "28. Trio Los Panchos – Esperame En El Cielo.wav" WAVE
INDEX 01 00:00:00
20:07
310
Нет комментариев. Ваш будет первым!