Поиск

(Jazz,Cuban Jazz) Richie Cole w/ Brass - "KUSH" The Music of Dizzie Gillespie - 1995, APE (image+.cue) lossless

Треклист:
Richie Cole w/ Brass / "KUSH" The Music of Dizzie Gillespie
Жанр: Jazz,Cuban Jazz
Страна-производитель диска: USA
Год издания диска: 1995
Издатель (лейбл): HEADS UP
Страна: USA
Аудио кодек: APE (*.ape)
Тип рипа: image+.cue
Битрейт аудио: lossless
Продолжительность: 00:57:13
Источник (релизер): Рип из личного архива
Наличие сканов в содержимом раздачи: да
Треклист:
1.Be-Bop
2.You Go To My Head
3.Birk's Works
4.I Waited For You
5.kush
6.Salt Peanuts
7.Con Alma
8.A Night in Tunisia
9.this is The Way
10.Mantaca
 
Лог создания рипа
Exact Audio Copy V0.99 prebeta 4 from 23. January 2008
Отчёт EAC об извлечении, выполненном 15. января 2011, 19:10
Richie Cole w/ Brass / "KUSH" The Music of Dizzie Gillespie
Дисковод: _NEC DVD_RW ND-2510A Adapter: 1 ID: 0
Режим чтения : Достоверность
Использование точного потока : Да
Отключение кэша аудио : Да
Использование указателей C2 : Нет
Коррекция смещения при чтении : 48
Способность читать области Lead-in и Lead-out : Нет
Заполнение пропущенных сэмплов тишиной : Да
Удаление блоков с тишиной в начале и конце : Нет
При вычислениях CRC использовались нулевые сэмплы : Да
Интерфейс : Встроенный Win32-интерфейс для Win NT/2000
Выходной формат : Внутренние WAV-операции
Формат сэмплов : 44.100 Гц; 16 бит; стерео
TOC извлечённого CD
Трек | Старт | Длительность | Начальный сектор | Конечный сектор
---------------------------------------------------------------------
1 | 0:00.00 | 5:34.37 | 0 | 25086
2 | 5:34.37 | 6:39.38 | 25087 | 55049
3 | 12:14.00 | 5:33.00 | 55050 | 80024
4 | 17:47.00 | 5:17.37 | 80025 | 103836
5 | 23:04.37 | 7:28.00 | 103837 | 137436
6 | 30:32.37 | 3:52.00 | 137437 | 154836
7 | 34:24.37 | 5:25.38 | 154837 | 179249
8 | 39:50.00 | 5:57.37 | 179250 | 206061
9 | 45:47.37 | 2:44.38 | 206062 | 218399
10 | 48:32.00 | 8:41.07 | 218400 | 257481
Характеристики диапазона извлечения и сообщения об ошибках
Выбранный диапазон
Имя файла E:\ПРОЕКТ\Richie Cole w Brass'Kush'The Music of Dizzie Gillespie 1995\Richie Cole w Brass - KUSH The Music of Dizzie Gillespie.wav
Пиковый уровень 98.3 %
Качество диапазона 100.0 %
CRC теста D26C0D80
CRC копии D26C0D80
Копирование... OK
Ошибок не произошло
AccurateRip: сводка
Трек 1 точность не определена (достоверность 2) [4CCF384F], AccurateRip вернул [5A7B527D]
Трек 2 точность не определена (достоверность 2) [8AC93F35], AccurateRip вернул [ED8E4055]
Трек 3 точность не определена (достоверность 2) [5D8B66C7], AccurateRip вернул [4F4F5041]
Трек 4 точность не определена (достоверность 2) [90F8F39D], AccurateRip вернул [96C0F0EF]
Трек 5 точность не определена (достоверность 2) [7D9BCAE9], AccurateRip вернул [2404E129]
Трек 6 точность не определена (достоверность 2) [DC68D43F], AccurateRip вернул [2E4F2B85]
Трек 7 точность не определена (достоверность 2) [17C2D628], AccurateRip вернул [DDCD72EA]
Трек 8 точность не определена (достоверность 2) [D84FE6DC], AccurateRip вернул [906FE46A]
Трек 9 точность не определена (достоверность 2) [3B3C508A], AccurateRip вернул [EA408206]
Трек 10 точность не определена (достоверность 2) [D88EF9CE], AccurateRip вернул [3155E7BE]
Ни один трек не прошёл проверки на точность
В вашей базе может быть иной вариант штамповки диска
Конец отчёта
 
Об альбоме (сборнике)
Все участники проекта в обложках
 
Состав
Richie Cole-alto saxophones
20:10
227
Нет комментариев. Ваш будет первым!