Поиск

(Brazilian, Bossa Nova, Vocal Jazz) Alaide Costa - Coracao (1976) (feat. Joao Donato & Ivan Lins) - 2008, FLAC (tracks+.cue) lossless

(Brazilian, Bossa Nova, Vocal Jazz) Alaide Costa - Coracao (1976) (feat. Joao Donato & Ivan Lins) - 2008, FLAC (tracks+.cue) lossless
Треклист:
Alaíde Costa
Coração (1976)
.

.
Жанр: Brazilian, Bossa Nova, Vocal Jazz | Страна: Brazil
Дата выпуска альбома / диска: 1976 / 2008 | Производитель диска: EMI Brazil
Аудио кодек: FLAC | Тип рипа: tracks+.cue | Битрейт аудио: lossless
Формат: Studio Album, Remastered
Продолжительность: 39:03
.
Tracklist:
01. Pai Grande (Milton Nascimento) (4:39)
02. O Samba Que Eu Lhe Fiz (Sueli Costa) (3:21)
03. Coração (Nelson Ângelo - Ronaldo Bastos) (2:56)
04. Catavento (Milton Nascimento) (2:40)
05. Quem Sou Eu (Johnny Alf) (3:08)
06. Sonho e Fantasia (João Donato - Lysias Ênio) (3:03)
07. Corpos (Ivan Lins - Vitor Martins) (4:10)
08. Pé Sem Cabeça (Danilo Caymmi - Ana Borba) (2:09)
09. Tomara (Novelli - Paulo César Pinheiro - Maurício Tapajós) (3:24)
10. Viver de Amor (Toninho Horta - Ronaldo Bastos) (2:17)
11. Tempo Calado (Alaíde Costa - Paulo Alberto Ventura) (3:22)
12. O que se sabe de cor (Wanting More) (Fernando Leporace) (3:54)
.Produced by Milton Nascimento and Mariozinho Rocha
Arrangements - João Donato
João Donato (piano)
Novelli (bass)
Robertinho Silva (drums)
Nelson Angelo (guitars)
Toninho Horta (electric guitar)
Ivan Lins (piano on track Corpos)
João Donato, Beto Guedes, Novelli, Nelson Angelo and Fernando Leporace (backing vocals).
 
EAC log
Exact Audio Copy V0.99 prebeta 4 from 23. January 2008
EAC extraction logfile from 17. May 2009, 20:56
Alaide Costa / Coracao
Used drive : PLEXTOR DVDR PX-880SA Adapter: 0 ID: 0
Read mode : Secure
Utilize accurate stream : Yes
Defeat audio cache : Yes
Make use of C2 pointers : No
Read offset correction : 6
Overread into Lead-In and Lead-Out : No
Fill up missing offset samples with silence : Yes
Delete leading and trailing silent blocks : No
Null samples used in CRC calculations : Yes
Used interface : Installed external ASPI interface
Gap handling : Appended to previous track
Used output format : Internal WAV Routines
Sample format : 44.100 Hz; 16 Bit; Stereo
TOC of the extracted CD
Track | Start | Length | Start sector | End sector
---------------------------------------------------------
1 | 0:00.00 | 4:39.65 | 0 | 20989
2 | 4:39.65 | 3:21.40 | 20990 | 36104
3 | 8:01.30 | 2:56.72 | 36105 | 49376
4 | 10:58.27 | 2:40.33 | 49377 | 61409
5 | 13:38.60 | 3:08.22 | 61410 | 75531
6 | 16:47.07 | 3:03.68 | 75532 | 89324
7 | 19:51.00 | 4:10.45 | 89325 | 108119
8 | 24:01.45 | 2:09.70 | 108120 | 117864
9 | 26:11.40 | 3:24.22 | 117865 | 133186
10 | 29:35.62 | 2:17.33 | 133187 | 143494
11 | 31:53.20 | 3:22.00 | 143495 | 158644
12 | 35:15.20 | 3:54.03 | 158645 | 176197
Track 1
Filename C:\01 - Pai grande.wav
Pre-gap length 0:00:02.00
Peak level 99.7 %
Track quality 100.0 %
Test CRC BD2D15FF
Copy CRC BD2D15FF
Track not present in AccurateRip database
Copy OK
Track 2
Filename C:\02 - O sambe que eu lhe fiz.wav
Peak level 100.0 %
Track quality 100.0 %
Test CRC 5145A2F5
Copy CRC 5145A2F5
Track not present in AccurateRip database
Copy OK
Track 3
Filename C:\03 - Coracao.wav
Peak level 97.6 %
Track quality 99.9 %
Test CRC 9628BC28
Copy CRC 9628BC28
Track not present in AccurateRip database
Copy OK
Track 4
Filename C:\04 - Catavento.wav
Peak level 100.0 %
Track quality 100.0 %
Test CRC 6F33E469
Copy CRC 6F33E469
Track not present in AccurateRip database
Copy OK
Track 5
Filename C:\05 - Quem sou eu .wav
Peak level 98.0 %
Track quality 99.9 %
Test CRC 438BB447
Copy CRC 438BB447
Track not present in AccurateRip database
Copy OK
Track 6
Filename C:\06 - Sonho e fantasia.wav
Peak level 98.1 %
Track quality 100.0 %
Test CRC 6B47331F
Copy CRC 6B47331F
Track not present in AccurateRip database
Copy OK
Track 7
Filename C:\07 - Corpos.wav
Peak level 98.3 %
Track quality 100.0 %
Test CRC 00EC0B58
Copy CRC 00EC0B58
Track not present in AccurateRip database
Copy OK
Track 8
Filename C:\08 - Pe sem cabeca.wav
Peak level 98.7 %
Track quality 100.0 %
Test CRC 261CE542
Copy CRC 261CE542
Track not present in AccurateRip database
Copy OK
Track 9
Filename C:\09 - Tomara.wav
Peak level 95.6 %
Track quality 100.0 %
Test CRC 1D1D778D
Copy CRC 1D1D778D
Track not present in AccurateRip database
Copy OK
Track 10
Filename C:\10 - Viver de amor.wav
Peak level 98.1 %
Track quality 100.0 %
Test CRC 1CFA15C5
Copy CRC 1CFA15C5
Track not present in AccurateRip database
Copy OK
Track 11
Filename C:\11 - Tempo calado.wav
Peak level 97.3 %
Track quality 100.0 %
Test CRC 35C6E06D
Copy CRC 35C6E06D
Track not present in AccurateRip database
Copy OK
Track 12
Filename C:\12 - O que se sabe de cor (Wanting More).wav
Peak level 98.4 %
Track quality 100.0 %
Test CRC 6047A638
Copy CRC 6047A638
Track not present in AccurateRip database
Copy OK
None of the tracks are present in the AccurateRip database
No errors occurred
End of status report
 
*.cue
REM DATE 1976
REM DISCID 97092D0C
REM COMMENT "ExactAudioCopy v0.99pb4"
PERFORMER "Alaide Costa"
TITLE "Coracao"
FILE "01 - Pai grande.wav" WAVE
TRACK 01 AUDIO
TITLE "Pai grande"
PERFORMER "Alaide Costa"
INDEX 01 00:00:00
FILE "02 - O sambe que eu lhe fiz.wav" WAVE
TRACK 02 AUDIO
TITLE "O sambe que eu lhe fiz"
PERFORMER "Alaide Costa"
INDEX 01 00:00:00
FILE "03 - Coracao.wav" WAVE
TRACK 03 AUDIO
TITLE "Coracao"
PERFORMER "Alaide Costa"
INDEX 01 00:00:00
FILE "04 - Catavento.wav" WAVE
TRACK 04 AUDIO
TITLE "Catavento"
PERFORMER "Alaide Costa"
INDEX 01 00:00:00
FILE "05 - Quem sou eu .wav" WAVE
TRACK 05 AUDIO
TITLE "Quem sou eu?"
PERFORMER "Alaide Costa"
INDEX 01 00:00:00
FILE "06 - Sonho e fantasia.wav" WAVE
TRACK 06 AUDIO
TITLE "Sonho e fantasia"
PERFORMER "Alaide Costa"
INDEX 01 00:00:00
FILE "07 - Corpos.wav" WAVE
TRACK 07 AUDIO
TITLE "Corpos"
PERFORMER "Alaide Costa"
INDEX 01 00:00:00
FILE "08 - Pe sem cabeca.wav" WAVE
TRACK 08 AUDIO
TITLE "Pe sem cabeca"
PERFORMER "Alaide Costa"
INDEX 01 00:00:00
FILE "09 - Tomara.wav" WAVE
TRACK 09 AUDIO
TITLE "Tomara"
PERFORMER "Alaide Costa"
INDEX 01 00:00:00
FILE "10 - Viver de amor.wav" WAVE
TRACK 10 AUDIO
TITLE "Viver de amor"
PERFORMER "Alaide Costa"
INDEX 01 00:00:00
FILE "11 - Tempo calado.wav" WAVE
TRACK 11 AUDIO
TITLE "Tempo calado"
PERFORMER "Alaide Costa"
INDEX 01 00:00:00
FILE "12 - O que se sabe de cor (Wanting More).wav" WAVE
TRACK 12 AUDIO
TITLE "O que se sabe de cor (Wanting More)"
PERFORMER "Alaide Costa"
INDEX 01 00:00:00
 
Audiochecker’s log
AUDIOCHECKER v2.0 beta (build 457) - by Dester - opdester@freemail.hu
~~~~~~~~~~~~~~~~~~~~~~~~~~~~~~~~~~
Started at: вторник, 16. 11. 2010. - 15:56.05
12 files found
01 -===- F:\Alaide Costa - Coracao (1976) 2008 [flac]\01 - Pai grande.flac
Extracted successfully
Conclusion: this track is CDDA with probability 99%
Tempfile successfully deleted.
02 -===- F:\Alaide Costa - Coracao (1976) 2008 [flac]\02 - O sambe que eu lhe fiz.flac
Extracted successfully
Conclusion: this track is CDDA with probability 100%
Tempfile successfully deleted.
03 -===- F:\Alaide Costa - Coracao (1976) 2008 [flac]\03 - Coracao.flac
Extracted successfully
Conclusion: this track is CDDA with probability 99%
Tempfile successfully deleted.
04 -===- F:\Alaide Costa - Coracao (1976) 2008 [flac]\04 - Catavento.flac
Extracted successfully
Conclusion: this track is CDDA with probability 100%
Tempfile successfully deleted.
05 -===- F:\Alaide Costa - Coracao (1976) 2008 [flac]\05 - Quem sou eu .flac
Extracted successfully
Conclusion: this track is CDDA with probability 100%
Tempfile successfully deleted.
06 -===- F:\Alaide Costa - Coracao (1976) 2008 [flac]\06 - Sonho e fantasia.flac
Extracted successfully
Conclusion: this track is CDDA with probability 100%
Tempfile successfully deleted.
07 -===- F:\Alaide Costa - Coracao (1976) 2008 [flac]\07 - Corpos.flac
Extracted successfully
Conclusion: this track is CDDA with probability 100%
Tempfile successfully deleted.
08 -===- F:\Alaide Costa - Coracao (1976) 2008 [flac]\08 - Pe sem cabeca.flac
Extracted successfully
Conclusion: this track is CDDA with probability 100%
Tempfile successfully deleted.
09 -===- F:\Alaide Costa - Coracao (1976) 2008 [flac]\09 - Tomara.flac
Extracted successfully
Conclusion: this track is CDDA with probability 99%
Tempfile successfully deleted.
10 -===- F:\Alaide Costa - Coracao (1976) 2008 [flac]\10 - Viver de amor.flac
Extracted successfully
Conclusion: this track is CDDA with probability 100%
Tempfile successfully deleted.
11 -===- F:\Alaide Costa - Coracao (1976) 2008 [flac]\11 - Tempo calado.flac
Extracted successfully
Conclusion: this track is CDDA with probability 100%
Tempfile successfully deleted.
12 -===- F:\Alaide Costa - Coracao (1976) 2008 [flac]\12 - O que se sabe de cor (Wanting More).flac
Extracted successfully
Conclusion: this track is CDDA with probability 100%
Tempfile successfully deleted.
Finished at: вторник, 16. 11. 2010. - 16:12.17 (operation time: 0:16.12)
~ Ripped by Flabber
.Сидирую до первых 10-ти скачавших. Далее раздача поддерживается силами скачавших.
Скачали сами - дайте скачать другим. .mp3@320 kbps
19:10
407
Нет комментариев. Ваш будет первым!