Поиск

(Brazilian, Bossa Nova, Vocal Jazz) Alaide Costa - Canta Suavemente (1960) - 2004, FLAC (tracks+.cue) lossless

(Brazilian, Bossa Nova, Vocal Jazz) Alaide Costa - Canta Suavemente (1960) - 2004, FLAC (tracks+.cue) lossless
Треклист:
Alaíde Costa
Canta Suavemente (1960)

Жанр: Brazilian, Bossa Nova, Vocal Jazz | Страна: Brazil
Дата выпуска альбома / диска: 1960 / 2004 | Производитель диска: Sony BMG Brazil
Аудио кодек: FLAC | Тип рипа: tracks+.cue | Битрейт аудио: lossless
Формат: Studio Album, Remastered
Продолжительность: 34:34


Tracklist:
01. Esquecendo Voce (Tom Jobim) (3:30)
02. Complicacao (Chico Feitosa - Ronaldo Boscoli) (1:54)
03. Historia de Nossa Historia (Marino Pinto - Aluisio de Barros) (3:07)
04. Ciume (Carlos Lyra) (2:15)
05. E Mentira Nosso Adeus (Maria Cecilia) (2:44)
06. Chora Tua Tristeza (Oscar Castro Neves - Luvercy Fiorini) (2:49)
07. Dindi (Tom Jobim - Aloysio de Oliveira) (3:42)
08. Jura de Pombo (Roberto Menescal - Ronaldo Boscoli) (2:31)
09. O Nosso Olhar (Geraldo Serafim - Sergio Ricardo) (3:26)
10. De-me o Braco (Jasson Fernandes - Luiz Bandeira) (2:51)
11. Discussao (Newton Mendonca - Tom Jobim) (2:25)
12. Fim de Noite (Ronaldo Boscoli - Fransisco Feitosa) (3:20)


 
EAC log
Exact Audio Copy V0.99 prebeta 5 from 4. May 2009
EAC extraction logfile from 1. November 2010, 1:54
Alaide Costa / Canta Suavemente
Used drive : PLEXTOR DVDR PX-880SA Adapter: 0 ID: 0
Read mode : Secure
Utilize accurate stream : Yes
Defeat audio cache : Yes
Make use of C2 pointers : No
Read offset correction : 6
Overread into Lead-In and Lead-Out : No
Fill up missing offset samples with silence : Yes
Delete leading and trailing silent blocks : No
Null samples used in CRC calculations : Yes
Used interface : Native Win32 interface for Win NT & 2000
Gap handling : Appended to previous track
Used output format : User Defined Encoder
Selected bitrate : 768 kBit/s
Quality : High
Add ID3 tag : Yes
Command line compressor : C:\Program Files (x86)\Exact Audio Copy\FLAC\FLAC.EXE
Additional command line options : -8 -V -T "ARTIST=%a" -T "TITLE=%t" -T "ALBUM=%g" -T "DATE=%y" -
T "TRACKNUMBER=%n" -T "TOTALTRACKS=%x" -T "GENRE=%m" -T "ALBUM ARTIST=%v" -T "ALBUMARTIST=%v" -
T "COMMENT=EAC V0.99 prebeta 5, Secure Mode, Test & Copy, Accurat
TOC of the extracted CD
Track | Start | Length | Start sector | End sector
---------------------------------------------------------
1 | 0:00.00 | 3:30.72 | 0 | 15821
2 | 3:30.72 | 1:54.48 | 15822 | 24419
3 | 5:25.45 | 3:07.22 | 24420 | 38466
4 | 8:32.67 | 2:15.30 | 38467 | 48621
5 | 10:48.22 | 2:44.05 | 48622 | 60926
6 | 13:32.27 | 2:49.10 | 60927 | 73611
7 | 16:21.37 | 3:42.70 | 73612 | 90331
8 | 20:04.32 | 2:31.68 | 90332 | 101724
9 | 22:36.25 | 3:26.50 | 101725 | 117224
10 | 26:03.00 | 2:51.55 | 117225 | 130104
11 | 28:54.55 | 2:25.47 | 130105 | 141026
12 | 31:20.27 | 3:20.25 | 141027 | 156051
Track 1
Filename D:\01 - Esquecendo Voce.wav
Pre-gap length 0:00:02.00
Peak level 99.9 %
Track quality 100.0 %
Test CRC 5E4E0E18
Copy CRC 5E4E0E18
Track not present in AccurateRip database
Copy OK
Track 2
Filename D:\02 - Complicacao.wav
Pre-gap length 0:00:01.56
Peak level 93.5 %
Track quality 100.0 %
Test CRC C2BD0023
Copy CRC C2BD0023
Track not present in AccurateRip database
Copy OK
Track 3
Filename D:\03 - Historia de Nossa Historia.wav
Pre-gap length 0:00:01.60
Peak level 96.8 %
Track quality 99.9 %
Test CRC F7E02C55
Copy CRC F7E02C55
Track not present in AccurateRip database
Copy OK
Track 4
Filename D:\04 - Ciume.wav
Pre-gap length 0:00:01.56
Peak level 96.8 %
Track quality 100.0 %
Test CRC 7E73A3EA
Copy CRC 7E73A3EA
Track not present in AccurateRip database
Copy OK
Track 5
Filename D:\05 - E Mentira Nosso Adeus.wav
Pre-gap length 0:00:01.56
Peak level 96.5 %
Track quality 100.0 %
Test CRC 4509C92B
Copy CRC 4509C92B
Track not present in AccurateRip database
Copy OK
Track 6
Filename D:\06 - Chora Tua Tristeza.wav
Pre-gap length 0:00:01.53
Peak level 96.7 %
Track quality 100.0 %
Test CRC 66F6CDB0
Copy CRC 66F6CDB0
Track not present in AccurateRip database
Copy OK
Track 7
Filename D:\07 - Dindi.wav
Pre-gap length 0:00:01.56
Peak level 96.8 %
Track quality 100.0 %
Test CRC 08118E61
Copy CRC 08118E61
Track not present in AccurateRip database
Copy OK
Track 8
Filename D:\08 - Jura de Pombo.wav
Pre-gap length 0:00:01.60
Peak level 96.8 %
Track quality 100.0 %
Test CRC 9F96BB3D
Copy CRC 9F96BB3D
Track not present in AccurateRip database
Copy OK
Track 9
Filename D:\09 - O Nosso Olhar.wav
Pre-gap length 0:00:01.53
Peak level 96.8 %
Track quality 100.0 %
Test CRC C41EBD7E
Copy CRC C41EBD7E
Track not present in AccurateRip database
Copy OK
Track 10
Filename D:\10 - De-me o Braco.wav
Pre-gap length 0:00:01.57
Peak level 94.4 %
Track quality 100.0 %
Test CRC 68BEB046
Copy CRC 68BEB046
Track not present in AccurateRip database
Copy OK
Track 11
Filename D:\11 - Discussao.wav
Pre-gap length 0:00:01.57
Peak level 96.8 %
Track quality 100.0 %
Test CRC EE687FEB
Copy CRC EE687FEB
Track not present in AccurateRip database
Copy OK
Track 12
Filename D:\12 - Fim de Noite.wav
Pre-gap length 0:00:01.49
Peak level 96.7 %
Track quality 100.0 %
Test CRC 146789F6
Copy CRC 146789F6
Track not present in AccurateRip database
Copy OK
None of the tracks are present in the AccurateRip database
No errors occurred
End of status report
 
*.cue
REM GENRE Samba
REM DATE 1960
REM DISCID 9808200C
REM COMMENT "ExactAudioCopy v0.99pb5"
PERFORMER "Alaide Costa"
TITLE "Canta Suavemente"
FILE "01 - Esquecendo Voce.wav" WAVE
TRACK 01 AUDIO
TITLE "Esquecendo Voce"
PERFORMER "Alaide Costa"
INDEX 01 00:00:00
TRACK 02 AUDIO
TITLE "Complicacao"
PERFORMER "Alaide Costa"
INDEX 00 03:29:30
FILE "02 - Complicacao.wav" WAVE
INDEX 01 00:00:00
TRACK 03 AUDIO
TITLE "Historia de Nossa Historia"
PERFORMER "Alaide Costa"
INDEX 00 01:53:03
FILE "03 - Historia de Nossa Historia.wav" WAVE
INDEX 01 00:00:00
TRACK 04 AUDIO
TITLE "Ciume"
PERFORMER "Alaide Costa"
INDEX 00 03:05:55
FILE "04 - Ciume.wav" WAVE
INDEX 01 00:00:00
TRACK 05 AUDIO
TITLE "E Mentira Nosso Adeus"
PERFORMER "Alaide Costa"
INDEX 00 02:13:63
FILE "05 - E Mentira Nosso Adeus.wav" WAVE
INDEX 01 00:00:00
TRACK 06 AUDIO
TITLE "Chora Tua Tristeza"
PERFORMER "Alaide Costa"
INDEX 00 02:42:40
FILE "06 - Chora Tua Tristeza.wav" WAVE
INDEX 01 00:00:00
TRACK 07 AUDIO
TITLE "Dindi"
PERFORMER "Alaide Costa"
INDEX 00 02:47:43
FILE "07 - Dindi.wav" WAVE
INDEX 01 00:00:00
TRACK 08 AUDIO
TITLE "Jura de Pombo"
PERFORMER "Alaide Costa"
INDEX 00 03:41:25
FILE "08 - Jura de Pombo.wav" WAVE
INDEX 01 00:00:00
TRACK 09 AUDIO
TITLE "O Nosso Olhar"
PERFORMER "Alaide Costa"
INDEX 00 02:30:28
FILE "09 - O Nosso Olhar.wav" WAVE
INDEX 01 00:00:00
TRACK 10 AUDIO
TITLE "De-me o Braco"
PERFORMER "Alaide Costa"
INDEX 00 03:25:07
FILE "10 - De-me o Braco.wav" WAVE
INDEX 01 00:00:00
TRACK 11 AUDIO
TITLE "Discussao"
PERFORMER "Alaide Costa"
INDEX 00 02:50:12
FILE "11 - Discussao.wav" WAVE
INDEX 01 00:00:00
TRACK 12 AUDIO
TITLE "Fim de Noite"
PERFORMER "Alaide Costa"
INDEX 00 02:24:10
FILE "12 - Fim de Noite.wav" WAVE
INDEX 01 00:00:00
 
Audiochecker’s log
AUDIOCHECKER v2.0 beta (build 457) - by Dester - opdester@freemail.hu
~~~~~~~~~~~~~~~~~~~~~~~~~~~~~~~~~~
Started at: вторник, 16. 11. 2010. - 11:24.17
12 files found
01 -===- F:\Alaide Costa - Canta Suavemente (1960) 2004 [flac]\01 - Esquecendo Voce.flac
Extracted successfully
Conclusion: this track is CDDA with probability 100%
Tempfile successfully deleted.
02 -===- F:\Alaide Costa - Canta Suavemente (1960) 2004 [flac]\02 - Complicacao.flac
Extracted successfully
Conclusion: this track is CDDA with probability 100%
Tempfile successfully deleted.
03 -===- F:\Alaide Costa - Canta Suavemente (1960) 2004 [flac]\03 - Historia de Nossa Historia.flac
Extracted successfully
Conclusion: this track is CDDA with probability 99%
Tempfile successfully deleted.
04 -===- F:\Alaide Costa - Canta Suavemente (1960) 2004 [flac]\04 - Ciume.flac
Extracted successfully
Conclusion: this track is CDDA with probability 100%
Tempfile successfully deleted.
05 -===- F:\Alaide Costa - Canta Suavemente (1960) 2004 [flac]\05 - E Mentira Nosso Adeus.flac
Extracted successfully
Conclusion: this track is CDDA with probability 100%
Tempfile successfully deleted.
06 -===- F:\Alaide Costa - Canta Suavemente (1960) 2004 [flac]\06 - Chora Tua Tristeza.flac
Extracted successfully
Conclusion: this track is CDDA with probability 99%
Tempfile successfully deleted.
07 -===- F:\Alaide Costa - Canta Suavemente (1960) 2004 [flac]\07 - Dindi.flac
Extracted successfully
Conclusion: this track is CDDA with probability 99%
Tempfile successfully deleted.
08 -===- F:\Alaide Costa - Canta Suavemente (1960) 2004 [flac]\08 - Jura de Pombo.flac
Extracted successfully
Conclusion: this track is CDDA with probability 100%
Tempfile successfully deleted.
09 -===- F:\Alaide Costa - Canta Suavemente (1960) 2004 [flac]\09 - O Nosso Olhar.flac
Extracted successfully
Conclusion: this track is CDDA with probability 100%
Tempfile successfully deleted.
10 -===- F:\Alaide Costa - Canta Suavemente (1960) 2004 [flac]\10 - De-me o Braco.flac
Extracted successfully
Conclusion: this track is CDDA with probability 99%
Tempfile successfully deleted.
11 -===- F:\Alaide Costa - Canta Suavemente (1960) 2004 [flac]\11 - Discussao.flac
Extracted successfully
Conclusion: this track is CDDA with probability 100%
Tempfile successfully deleted.
12 -===- F:\Alaide Costa - Canta Suavemente (1960) 2004 [flac]\12 - Fim de Noite.flac
Extracted successfully
Conclusion: this track is CDDA with probability 100%
Tempfile successfully deleted.
Finished at: вторник, 16. 11. 2010. - 11:37.53 (operation time: 0:13.35)
~ Ripped by Flabber
Сидирую до первых 10-ти скачавших. Далее раздача поддерживается силами скачавших.
Скачали сами - дайте скачать другим.
mp3@320 kbps
18:09
309
Нет комментариев. Ваш будет первым!