Поиск

(Bossa Nova, Brazilian Jazz) Chico Buarque & Ennio Morricone - Per Un Pugno Di Samba (1970) - 2003, FLAC (tracks+.cue) lossless

(Bossa Nova, Brazilian Jazz) Chico Buarque & Ennio Morricone - Per Un Pugno Di Samba (1970) - 2003, FLAC (tracks+.cue) lossless
Треклист:
Chico Buarque & Ennio Morricone
Per Un Pugno Di Samba (1970)



Жанр: Bossa Nova, Brazilian Jazz | Страна: Brazil
Дата выпуска альбома / диска: 1970 / 2003 | Производитель диска: RCA BMG Brazil
Аудио кодек: FLAC | Тип рипа: tracks+.cue | Битрейт аудио: lossless
+ PNG art scans
Формат: Studio Album, Remastered
Продолжительность: 37:48


Tracklist:
01. Rotativa (3:21)
02. Samba E Amore (3:50)
03. Sogno Di Un Carnevale (2:24)
04. Lei No, Lei Sta Ballando (3:05)
05. Il Nome Di Maria (2:40)
06. Funerale Di Un Contadino (3:20)
07. In Te (3:03)
08. Queste E Quelle (3:36)
09. Tu Sei Una Di Noi (2:54)
10. Nicanor (3:08)
11. In Memoria Di Un Congiurato (4:44)
12. Ed Ora Dico Sul Serio (1:43)


 
EAC log
Exact Audio Copy V0.99 prebeta 5 from 4. May 2009
EAC extraction logfile from 31. October 2010, 14:18
Chico Buarque & Ennio Morricone / Per Un Pugno Di Samba
Used drive : ATAPI iHAP122 8 Adapter: 1 ID: 0
Read mode : Secure
Utilize accurate stream : Yes
Defeat audio cache : Yes
Make use of C2 pointers : No
Read offset correction : 6
Overread into Lead-In and Lead-Out : No
Fill up missing offset samples with silence : Yes
Delete leading and trailing silent blocks : No
Null samples used in CRC calculations : Yes
Used interface : Native Win32 interface for Win NT & 2000
Gap handling : Appended to previous track
Used output format : User Defined Encoder
Selected bitrate : 128 kBit/s
Quality : High
Add ID3 tag : No
Command line compressor : C:\Program Files\FLAC\flac.exe
Additional command line options : -8 -V -T "ARTIST=%a" -T "TITLE=%t" -T "ALBUM=%g" -T "DATE=%y" -
T "TRACKNUMBER=%n" -T "TOTALTRACKS=%x" -T "GENRE=%m" -T "ALBUM ARTIST=%v" -T "ALBUMARTIST=%v" -
T "COMMENT=EAC V0.99 prebeta 5, Secure Mode, Test & Copy, Accurat
TOC of the extracted CD
Track | Start | Length | Start sector | End sector
---------------------------------------------------------
1 | 0:00.00 | 3:21.68 | 0 | 15142
2 | 3:21.68 | 3:50.08 | 15143 | 32400
3 | 7:12.01 | 2:24.25 | 32401 | 43225
4 | 9:36.26 | 3:05.35 | 43226 | 57135
5 | 12:41.61 | 2:40.55 | 57136 | 69190
6 | 15:22.41 | 3:20.16 | 69191 | 84206
7 | 18:42.57 | 3:03.67 | 84207 | 97998
8 | 21:46.49 | 3:36.04 | 97999 | 114202
9 | 25:22.53 | 2:54.08 | 114203 | 127260
10 | 28:16.61 | 3:08.38 | 127261 | 141398
11 | 31:25.24 | 4:44.43 | 141399 | 162741
12 | 36:09.67 | 1:43.05 | 162742 | 170471
Track 1
Filename D:\Temp\01 - Rotativa.wav
Pre-gap length 0:00:02.00
Peak level 100.0 %
Track quality 99.9 %
Test CRC 686AD3DD
Copy CRC 686AD3DD
Accurately ripped (confidence 1) [97F87408]
Copy OK
Track 2
Filename D:\Temp\02 - Samba E Amore.wav
Pre-gap length 0:00:01.06
Peak level 98.6 %
Track quality 99.9 %
Test CRC E6DF0A85
Copy CRC E6DF0A85
Accurately ripped (confidence 1) [49C9E8F3]
Copy OK
Track 3
Filename D:\Temp\03 - Sogno Di Un Carnevale.wav
Peak level 97.6 %
Track quality 100.0 %
Test CRC 433A25A6
Copy CRC 433A25A6
Accurately ripped (confidence 1) [68D14863]
Copy OK
Track 4
Filename D:\Temp\04 - Lei No, Lei Sta Ballando.wav
Peak level 98.6 %
Track quality 100.0 %
Test CRC 5727EA82
Copy CRC 5727EA82
Accurately ripped (confidence 1) [71ABE34D]
Copy OK
Track 5
Filename D:\Temp\05 - Il Nome Di Maria.wav
Peak level 97.3 %
Track quality 99.9 %
Test CRC 40296056
Copy CRC 40296056
Accurately ripped (confidence 1) [E7223AC7]
Copy OK
Track 6
Filename D:\Temp\06 - Funerale Di Un Contadino.wav
Peak level 100.0 %
Track quality 99.9 %
Test CRC 1497813C
Copy CRC 1497813C
Accurately ripped (confidence 1) [5068E59F]
Copy OK
Track 7
Filename D:\Temp\07 - In Te.wav
Peak level 96.3 %
Track quality 100.0 %
Test CRC 34293487
Copy CRC 34293487
Accurately ripped (confidence 1) [07013CEE]
Copy OK
Track 8
Filename D:\Temp\08 - Queste E Quelle.wav
Peak level 97.7 %
Track quality 100.0 %
Test CRC 6B29B981
Copy CRC 6B29B981
Accurately ripped (confidence 1) [C32BDDB8]
Copy OK
Track 9
Filename D:\Temp\09 - Tu Sei Una Di Noi.wav
Peak level 97.0 %
Track quality 100.0 %
Test CRC C509C173
Copy CRC C509C173
Accurately ripped (confidence 1) [14CF2F73]
Copy OK
Track 10
Filename D:\Temp\10 - Nicanor.wav
Pre-gap length 0:00:01.32
Peak level 97.4 %
Track quality 100.0 %
Test CRC 7E39803D
Copy CRC 7E39803D
Accurately ripped (confidence 1) [2739BB59]
Copy OK
Track 11
Filename D:\Temp\11 - In Memoria Di Un Congiurato.wav
Peak level 98.7 %
Track quality 99.9 %
Test CRC 7EC0A3CC
Copy CRC 7EC0A3CC
Accurately ripped (confidence 1) [66AE90B6]
Copy OK
Track 12
Filename D:\Temp\12 - Ed Ora Dico Sul Serio.wav
Peak level 97.9 %
Track quality 100.0 %
Test CRC AB948A90
Copy CRC AB948A90
Accurately ripped (confidence 1) [14F54F0E]
Copy OK
All tracks accurately ripped
No errors occurred
End of status report
 
*.cue
REM GENRE MPB
REM DATE 1970
REM DISCID A008E00C
REM COMMENT "ExactAudioCopy v0.99pb5"
PERFORMER "Chico Buarque & Ennio Morricone"
TITLE "Per Un Pugno Di Samba"
FILE "01 - Rotativa.wav" WAVE
TRACK 01 AUDIO
TITLE "Rotativa"
PERFORMER "Chico Buarque & Ennio Morricone"
INDEX 01 00:00:00
TRACK 02 AUDIO
TITLE "Samba E Amore"
PERFORMER "Chico Buarque & Ennio Morricone"
INDEX 00 03:20:63
FILE "02 - Samba E Amore.wav" WAVE
INDEX 01 00:00:00
FILE "03 - Sogno Di Un Carnevale.wav" WAVE
TRACK 03 AUDIO
TITLE "Sogno Di Un Carnevale"
PERFORMER "Chico Buarque & Ennio Morricone"
INDEX 01 00:00:00
FILE "04 - Lei No, Lei Sta Ballando.wav" WAVE
TRACK 04 AUDIO
TITLE "Lei No, Lei Sta Ballando"
PERFORMER "Chico Buarque & Ennio Morricone"
INDEX 01 00:00:00
FILE "05 - Il Nome Di Maria.wav" WAVE
TRACK 05 AUDIO
TITLE "Il Nome Di Maria"
PERFORMER "Chico Buarque & Ennio Morricone"
INDEX 01 00:00:00
FILE "06 - Funerale Di Un Contadino.wav" WAVE
TRACK 06 AUDIO
TITLE "Funerale Di Un Contadino"
PERFORMER "Chico Buarque & Ennio Morricone"
INDEX 01 00:00:00
FILE "07 - In Te.wav" WAVE
TRACK 07 AUDIO
TITLE "In Te"
PERFORMER "Chico Buarque & Ennio Morricone"
INDEX 01 00:00:00
FILE "08 - Queste E Quelle.wav" WAVE
TRACK 08 AUDIO
TITLE "Queste E Quelle"
PERFORMER "Chico Buarque & Ennio Morricone"
INDEX 01 00:00:00
FILE "09 - Tu Sei Una Di Noi.wav" WAVE
TRACK 09 AUDIO
TITLE "Tu Sei Una Di Noi"
PERFORMER "Chico Buarque & Ennio Morricone"
INDEX 01 00:00:00
TRACK 10 AUDIO
TITLE "Nicanor"
PERFORMER "Chico Buarque & Ennio Morricone"
INDEX 00 02:52:59
FILE "10 - Nicanor.wav" WAVE
INDEX 01 00:00:00
FILE "11 - In Memoria Di Un Congiurato.wav" WAVE
TRACK 11 AUDIO
TITLE "In Memoria Di Un Congiurato"
PERFORMER "Chico Buarque & Ennio Morricone"
INDEX 01 00:00:00
FILE "12 - Ed Ora Dico Sul Serio.wav" WAVE
TRACK 12 AUDIO
TITLE "Ed Ora Dico Sul Serio"
PERFORMER "Chico Buarque & Ennio Morricone"
INDEX 01 00:00:00
 
Audiochecker’s log
AUDIOCHECKER v2.0 beta (build 457) - by Dester - opdester@freemail.hu
~~~~~~~~~~~~~~~~~~~~~~~~~~~~~~~~~~
Started at: среда, 17. 11. 2010. - 15:21.04
12 files found
01 -===- F:\Chico Buarque & Ennio Morricone - Per Un Pugno Di Samba (1970) 2003 [flac]\01 - Rotativa.flac
Extracted successfully
Conclusion: this track is CDDA with probability 100%
Tempfile successfully deleted.
02 -===- F:\Chico Buarque & Ennio Morricone - Per Un Pugno Di Samba (1970) 2003 [flac]\02 - Samba E Amore.flac
Extracted successfully
Conclusion: this track is CDDA with probability 100%
Tempfile successfully deleted.
03 -===- F:\Chico Buarque & Ennio Morricone - Per Un Pugno Di Samba (1970) 2003 [flac]\03 - Sogno Di Un Carnevale.flac
Extracted successfully
Conclusion: this track is CDDA with probability 100%
Tempfile successfully deleted.
04 -===- F:\Chico Buarque & Ennio Morricone - Per Un Pugno Di Samba (1970) 2003 [flac]\04 - Lei No, Lei Sta Ballando.flac
Extracted successfully
Conclusion: this track is CDDA with probability 100%
Tempfile successfully deleted.
05 -===- F:\Chico Buarque & Ennio Morricone - Per Un Pugno Di Samba (1970) 2003 [flac]\05 - Il Nome Di Maria.flac
Extracted successfully
Conclusion: this track is CDDA with probability 100%
Tempfile successfully deleted.
06 -===- F:\Chico Buarque & Ennio Morricone - Per Un Pugno Di Samba (1970) 2003 [flac]\06 - Funerale Di Un Contadino.flac
Extracted successfully
Conclusion: this track is CDDA with probability 100%
Tempfile successfully deleted.
07 -===- F:\Chico Buarque & Ennio Morricone - Per Un Pugno Di Samba (1970) 2003 [flac]\07 - In Te.flac
Extracted successfully
Conclusion: this track is CDDA with probability 100%
Tempfile successfully deleted.
08 -===- F:\Chico Buarque & Ennio Morricone - Per Un Pugno Di Samba (1970) 2003 [flac]\08 - Queste E Quelle.flac
Extracted successfully
Conclusion: this track is CDDA with probability 100%
Tempfile successfully deleted.
09 -===- F:\Chico Buarque & Ennio Morricone - Per Un Pugno Di Samba (1970) 2003 [flac]\09 - Tu Sei Una Di Noi.flac
Extracted successfully
Conclusion: this track is CDDA with probability 100%
Tempfile successfully deleted.
10 -===- F:\Chico Buarque & Ennio Morricone - Per Un Pugno Di Samba (1970) 2003 [flac]\10 - Nicanor.flac
Extracted successfully
Conclusion: this track is CDDA with probability 100%
Tempfile successfully deleted.
11 -===- F:\Chico Buarque & Ennio Morricone - Per Un Pugno Di Samba (1970) 2003 [flac]\11 - In Memoria Di Un Congiurato.flac
Extracted successfully
Conclusion: this track is CDDA with probability 100%
Tempfile successfully deleted.
12 -===- F:\Chico Buarque & Ennio Morricone - Per Un Pugno Di Samba (1970) 2003 [flac]\12 - Ed Ora Dico Sul Serio.flac
Extracted successfully
Conclusion: this track is CDDA with probability 100%
Tempfile successfully deleted.
Finished at: среда, 17. 11. 2010. - 15:38.39 (operation time: 0:17.35)
~ Ripped by Unknown
Сидирую до первых 10-ти скачавших. Далее раздача поддерживается силами скачавших.
Скачали сами - дайте скачать другим.
19:11
294
Нет комментариев. Ваш будет первым!