Поиск

(Bossa Nova/Latin Jazz) Tom Jobim - Minha Historia (The Best Of) - 1997, FLAC (image+.cue), lossless

Треклист:
Tom Jobim - Minha História (The Best Of)
Жанр: Latin Jazz/Bossa Nova
Год выпуска диска: 1997
Производитель диска: Polygram Do Brasil Ltda. (Philips) - 510473-2 - Brazil
Аудио кодек: FLAC
Тип рипа: image+.cue
Битрейт аудио: lossless
Продолжительность: 49:20
Трэклист:
01. Luiza
02. Passarim
03. Años Dourados
04. Gabriela
05. Chansong
06. Samba Do Soho
07. Girl From Ipanema [Instrumental]
08. Águas De Março (Waters Of March)
09. Felicidade
10. Só Tinha De Ser Com Você
11. Insensatez [Instrumental]
12. Dindi
13. One Note Samba [Instrumental]
14. Se Todos Fossem Iguais a Você/Eu Sei Que Vou Te Amar
 
Информация
Антонио Карлос Жобим (Бразильские. Antonio Carlos Jobim; 25. јануар 1927—9. децембар 1994) је био бразилски композитор и пијаниста, и творац музичког стила боса нова са Жоао Жилбертом. Његове најпознатије композиције су "Garrota de Ipanema" ("The Girl from Ipanema"), "Corcovado", "Desafinado", "One Note Samba", "Insensatez", и многе друге, компоноване углавном почетком шездесетих. Међу извођачима његове музике су Жоао Жилберто, Аштруд Жилберто, Стен Гец, Ела Фицџералд, и многи други џез музичари и певачи.
01. Луиза
02. Passarim
03. Años Дорадус
04. Gabriela
05. Chansong
06. Samba Do Soho
07. Девушка из Ipanema [Instrumental]
08. UAS марта (Вода март
09. Счастье
10. Just Had To Be With You
11. Глупость [Instrumental]
12. Dindi
13. One Note Samba [Instrumental]
14. Где были все же призываю вас / I Know What Te Amar
 
EAC Log
Exact Audio Copy V0.99 prebeta 5 from 4. May 2009
EAC extraction logfile from 24. October 2009, 14:54
Tom Jobim / Minha Historia
Used drive : HL-DT-STDVDRAM GH20NS15 Adapter: 0 ID: 0
Read mode : Secure
Utilize accurate stream : Yes
Defeat audio cache : Yes
Make use of C2 pointers : No
Read offset correction : 667
Overread into Lead-In and Lead-Out : No
Fill up missing offset samples with silence : Yes
Delete leading and trailing silent blocks : No
Null samples used in CRC calculations : Yes
Used interface : Installed external ASPI interface
Used output format : User Defined Encoder
Selected bitrate : 1024 kBit/s
Quality : High
Add ID3 tag : No
Command line compressor : C:\Program Files\Exact Audio Copy\Flac\flac.exe
Additional command line options : -8 -A tukey(0.25) -A gauss(0.1875) -b 4096 -V -T "artist=%a" -T "title=%t" -T "album=%g" -T "date=%y" -T "tracknumber=%n" -T "genre=%m" %s --sector-align
TOC of the extracted CD
Track | Start | Length | Start sector | End sector
---------------------------------------------------------
1 | 0:00.32 | 2:59.60 | 32 | 13516
2 | 3:00.17 | 3:37.05 | 13517 | 29796
3 | 6:37.22 | 3:43.03 | 29797 | 46524
4 | 10:20.25 | 7:58.57 | 46525 | 82431
5 | 18:19.07 | 3:18.33 | 82432 | 97314
6 | 21:37.40 | 2:59.40 | 97315 | 110779
7 | 24:37.05 | 3:25.07 | 110780 | 126161
8 | 28:02.12 | 3:31.68 | 126162 | 142054
9 | 31:34.05 | 2:06.00 | 142055 | 151504
10 | 33:40.05 | 3:25.10 | 151505 | 166889
11 | 37:05.15 | 2:54.40 | 166890 | 179979
12 | 39:59.55 | 2:36.35 | 179980 | 191714
13 | 42:36.15 | 2:16.15 | 191715 | 201929
14 | 44:52.30 | 4:27.62 | 201930 | 222016
Range status and errors
Selected range
Filename D:\Torrents.ru\Tom Jobim\Tom Jobim - Minha História (The Best Of)\Tom Jobim - Minha Historia (The Best Of).wav
Peak level 100.0 %
Range quality 100.0 %
Test CRC 8E1F4A12
Copy CRC 8E1F4A12
Copy OK
No errors occurred
AccurateRip summary
Track 1 cannot be verified as accurate (confidence 1) [F4398177], AccurateRip returned [CF7D7BE3]
Track 2 cannot be verified as accurate (confidence 1) [97C6F538], AccurateRip returned [EF017BBA]
Track 3 cannot be verified as accurate (confidence 1) [E902E60F], AccurateRip returned [B4957725]
Track 4 cannot be verified as accurate (confidence 1) [0345078B], AccurateRip returned [071F838B]
Track 5 cannot be verified as accurate (confidence 1) [2C357E84], AccurateRip returned [263750C1]
Track 6 cannot be verified as accurate (confidence 1) [EBFB7F81], AccurateRip returned [320DF236]
Track 7 cannot be verified as accurate (confidence 1) [B033DA28], AccurateRip returned [75A4503F]
Track 8 cannot be verified as accurate (confidence 1) [94005EAC], AccurateRip returned [EC73EFDB]
Track 9 cannot be verified as accurate (confidence 1) [32B5C791], AccurateRip returned [E52B294D]
Track 10 cannot be verified as accurate (confidence 1) [23B06FAA], AccurateRip returned [50EB7AD3]
Track 11 cannot be verified as accurate (confidence 1) [F6B67F75], AccurateRip returned [A93E7D40]
Track 12 cannot be verified as accurate (confidence 1) [D0AEA2AC], AccurateRip returned [6DB69D8C]
Track 13 cannot be verified as accurate (confidence 1) [8382F72F], AccurateRip returned [C2AB81C0]
Track 14 cannot be verified as accurate (confidence 1) [CD878120], AccurateRip returned [DE9A6B18]
No tracks could be verified as accurate
You may have a different pressing from the one(s) in the database
End of status report
 
Audiochecker
AUDIOCHECKER v2.0 beta (build 457) - by Dester - opdester@freemail.hu
~~~~~~~~~~~~~~~~~~~~~~~~~~~~~~~~~~
-=== DO NOT EDIT THIS FILE! ===-
Path: ...\Tom Jobim - Minha História (The Best Of)
1 -=- Tom Jobim - Minha Historia (The Best Of).flac -=- CDDA (100%)
249796932
 
Tau Analyzer
По всем вопросам пишите личное сообщение пользователю M0p94ok.
08:35
216
Нет комментариев. Ваш будет первым!