Поиск

(jazz, fusion, funk) Dave Valentin – Light Struck - 1986, FLAC (image+.cue), lossless

Треклист:
Dave Valentin – Light Struck
Жанр: jazz, fusion, funk
Год выпуска диска: 1986
Производитель диска: Japan
Аудио кодек: FLAC
Тип рипа: image+.cue
Битрейт аудио: lossless
Продолжительность: 39:27
Трэклист:
01. Miss V
02. Can't Change My Heart
03. Grandslam
04. Village
05. Am-FM
06. Chris Cross
07. Prince of Wands
08. Prelude to a Kiss
Доп. информация:
Personnel:
Dave Valentin - Flute
Lincoln Goines - Electric Bass
Bill O'Connell - Acoustic Piano & Yamaha DX7
Robert Armeen - Drums
Rafael De Jesus - Percussion & Congas
Robert Gonzales - Drums
Mitchel Forman - Synthesizer & Electric Grand Piano
Buddy Williams - Drums
Francisco Centeno - Electric Bass
Angela Bofill - Vocals On "Can't Change My Heart"
 
EAC log
Exact Audio Copy V0.99 prebeta 5 from 4. May 2009
EAC extraction logfile from 24. October 2009, 3:47
Dave Valentin / Light Struck
Used drive : _NEC DVD_RW ND-3520A Adapter: 1 ID: 1
Read mode : Secure
Utilize accurate stream : Yes
Defeat audio cache : Yes
Make use of C2 pointers : No
Read offset correction : 48
Overread into Lead-In and Lead-Out : No
Fill up missing offset samples with silence : Yes
Delete leading and trailing silent blocks : No
Null samples used in CRC calculations : No
Used interface : Native Win32 interface for Win NT & 2000
Used output format : Internal WAV Routines
Sample format : 44.100 Hz; 16 Bit; Stereo
TOC of the extracted CD
Track | Start | Length | Start sector | End sector
---------------------------------------------------------
1 | 0:00.37 | 4:58.55 | 37 | 22441
2 | 4:59.17 | 4:40.20 | 22442 | 43461
3 | 9:39.37 | 5:02.45 | 43462 | 66156
4 | 14:42.07 | 4:18.03 | 66157 | 85509
5 | 19:00.10 | 4:47.05 | 85510 | 107039
6 | 23:47.15 | 4:31.60 | 107040 | 127424
7 | 28:19.00 | 6:21.65 | 127425 | 156064
8 | 34:40.65 | 4:46.45 | 156065 | 177559
Range status and errors
Selected range
Filename F:\AVAXHOME\Dave Valentin - Light Struck (1986)\Dave Valentin - Light Struck.wav
Peak level 100.0 %
Range quality 99.9 %
Copy CRC F76FBEE3
Copy OK
No errors occurred
AccurateRip summary
Track 1 accurately ripped (confidence 6) [6F97BBC7]
Track 2 accurately ripped (confidence 6) [BE81F53B]
Track 3 accurately ripped (confidence 6) [447AB219]
Track 4 accurately ripped (confidence 6) [0799890A]
Track 5 accurately ripped (confidence 6) [A2935C1D]
Track 6 accurately ripped (confidence 6) [87514037]
Track 7 accurately ripped (confidence 6) [B50CC689]
Track 8 accurately ripped (confidence 6) [DB48B5D9]
All tracks accurately ripped
End of status report
По всем вопросам пишите личное сообщение пользователю M0p94ok.
08:36
252
Нет комментариев. Ваш будет первым!