Поиск

(Latin Jazz/Funk) Tim Maia - Minha Historia (The Best Of) - 1994, FLAC (image+.cue), lossless

Треклист:
Tim Maia - Minha História (The Best Of)
Жанр: Latin Jazz/Funk
Год выпуска диска: 1994
Производитель диска: Polygram Do Brasil Ltda. (Philips) - 510474-2 - Brazil
Аудио кодек: FLAC
Тип рипа: image+.cue
Битрейт аудио: lossless
Продолжительность: 49:48
Трэклист:
1. Não Quero Dinheiro
2. O Descobridor Dos Sete Mares
3. Me Dê Motivo
4. Bons Momentos
5. Você E Eu, Eu E Você
6. Chocolate
7. Azul Da Cor Do Mar
8. Primavera
9. Coroné António Bento
10. Réu Confesso
11. Você
12. There Are The Songs (Esta É A Canção)
13. Gostava Tanto De Você
14. Até Que Enfim Encontrei Você
 
Информация
Биография
Себастьяна Родригеса Майя, более известный как Тим Майя (Рио-де-Жанейро, Сентябрь 28, 1942 - Март 15, 1998), является одним из самых любимых певцов Бразилии общественных и художественных. Он начал сочинять свои первые аккорды, как ребенок, и я был удивлен большой семье 19 братьев.
Отличается новаторской в деле MPB стиль душа поет. С его голосом осуществляется, стал одним из великих имен бразильскую музыку, продавая больше альбомов и имел многочисленные успехи, помнил даже сегодня, и под влиянием его племянник, а также певицы Ed Motta.
Он жил в Соединенных Штатах в период с 1959 по 1964 год до его арестовали за хранение наркотиков, а затем выслан из страны.
Он записал свой первый альбом, Тим Майя, в 1970 году, как указано в группу "мутантов". На этом альбоме была успешная весна полосы, синий цвет моря и вам и мне. По Elis Regina, признавая успехи Тим, он записал диск своих песен на английском языке.
В 70-е, она стала более известной песне, как танец я не хочу, деньги (просто хочу любить), в эпоху диско. Было несколько взлетов и падений за свою карьеру, как пренебрежение несколько друзей, после своего ареста в Нью-Йорке, а также финансовые проблемы, и особенно наркотиков.
Было охвачено много художников, таких как Kid Abelha, Лулу Сантос, Paralamas делать Sucesso и получили должное таких художников, как Каэтано Велозу и Хорхе Бена Jor (Вт / Бразилия)
Он умер в 1998 году, через неделю в больнице после плохо себя чувствовал в шоу из-за проблем со здоровьем.
 
EAC Log
Exact Audio Copy V0.99 prebeta 5 from 4. May 2009
EAC extraction logfile from 24. October 2009, 13:06
Tim Maia / Minha História · Tim Maia
Used drive : HL-DT-STDVDRAM GH20NS15 Adapter: 0 ID: 0
Read mode : Secure
Utilize accurate stream : Yes
Defeat audio cache : Yes
Make use of C2 pointers : No
Read offset correction : 667
Overread into Lead-In and Lead-Out : No
Fill up missing offset samples with silence : Yes
Delete leading and trailing silent blocks : No
Null samples used in CRC calculations : Yes
Used interface : Installed external ASPI interface
Used output format : User Defined Encoder
Selected bitrate : 1024 kBit/s
Quality : High
Add ID3 tag : No
Command line compressor : C:\Program Files\Exact Audio Copy\Flac\flac.exe
Additional command line options : -8 -A tukey(0.25) -A gauss(0.1875) -b 4096 -V -T "artist=%a" -T "title=%t" -T "album=%g" -T "date=%y" -T "tracknumber=%n" -T "genre=%m" %s --sector-align
TOC of the extracted CD
Track | Start | Length | Start sector | End sector
---------------------------------------------------------
1 | 0:00.32 | 2:33.23 | 32 | 11529
2 | 2:33.55 | 4:23.02 | 11530 | 31256
3 | 6:56.57 | 5:30.43 | 31257 | 56049
4 | 12:27.25 | 4:52.55 | 56050 | 78004
5 | 17:20.05 | 4:50.17 | 78005 | 99771
6 | 22:10.22 | 3:15.08 | 99772 | 114404
7 | 25:25.30 | 3:17.70 | 114405 | 129249
8 | 28:43.25 | 2:07.52 | 129250 | 138826
9 | 30:51.02 | 2:12.33 | 138827 | 148759
10 | 33:03.35 | 3:37.37 | 148760 | 165071
11 | 36:40.72 | 4:04.10 | 165072 | 183381
12 | 40:45.07 | 3:09.60 | 183382 | 197616
13 | 43:54.67 | 4:16.28 | 197617 | 216844
14 | 48:11.20 | 1:44.25 | 216845 | 224669
Range status and errors
Selected range
Filename D:\Torrents.ru\Tim Maia\Tim Maia - Minha História (The Best Of)\Tim Maia - Minha História (The Best Of).wav
Peak level 100.0 %
Range quality 100.0 %
Test CRC 4D223A6C
Copy CRC 4D223A6C
Copy OK
No errors occurred
AccurateRip summary
Track 1 accurately ripped (confidence 1) [1B3A99AF]
Track 2 accurately ripped (confidence 1) [FA4C240E]
Track 3 accurately ripped (confidence 1) [D9D3BC00]
Track 4 accurately ripped (confidence 1) [47D2BAA8]
Track 5 accurately ripped (confidence 1) [83A201B8]
Track 6 accurately ripped (confidence 1) [8AB32DEB]
Track 7 accurately ripped (confidence 1) [D82813FD]
Track 8 accurately ripped (confidence 1) [0811CAD4]
Track 9 accurately ripped (confidence 1) [A34E5F10]
Track 10 accurately ripped (confidence 1) [298EAA74]
Track 11 accurately ripped (confidence 1) [E382D5E0]
Track 12 accurately ripped (confidence 1) [7EA7999F]
Track 13 accurately ripped (confidence 1) [E5C2AD67]
Track 14 accurately ripped (confidence 1) [828CB96D]
All tracks accurately ripped
End of status report
 
Audiochecker
AUDIOCHECKER v2.0 beta (build 457) - by Dester - opdester@freemail.hu
~~~~~~~~~~~~~~~~~~~~~~~~~~~~~~~~~~
-=== DO NOT EDIT THIS FILE! ===-
Path: ...\Tim Maia - Minha História (The Best Of)
1 -=- Tim Maia - Minha História (The Best Of).flac -=- CDDA (100%)
174191332
 
Tau Analyzer
09:34
297
Нет комментариев. Ваш будет первым!