Поиск

(Bossa Nova/Latin Jazz) Chico Buarque - Nao Vai Passar Vol. 4 - 1992, FLAC (image+.cue), lossless

(Bossa Nova/Latin Jazz) Chico Buarque - Nao Vai Passar Vol. 4 - 1992, FLAC (image+.cue), lossless
Треклист:
Chico Buarque - Não Vai Passar Vol. 4
Жанр: Bossa Nova/Latin Jazz
Год выпуска диска: 1992
Производитель диска: RGE Discos - 342.6165 - Brazil
Аудио кодек: FLAC
Тип рипа: image+.cue
Битрейт аудио: lossless
Продолжительность: 30:31
Трэклист:
01 - Retrato Em Preto E Branco
02 - O Velho
03 - Ela Desatinou
04 - Sabiá
05 - Tema Para Morte E Vida Severina
06 - Desencontro
07 - Benvinda
08 - Até 2° Feira
09 - Umas E Outras
10 - Onde É Que Você Estava
 
Scans
 
EAC Log
Exact Audio Copy V0.99 prebeta 5 from 4. May 2009
EAC extraction logfile from 24. October 2009, 16:16
Chico Buarque / N o Vai Passar - Vol. 4
Used drive : HL-DT-STDVDRAM GH20NS15 Adapter: 0 ID: 0
Read mode : Secure
Utilize accurate stream : Yes
Defeat audio cache : Yes
Make use of C2 pointers : No
Read offset correction : 667
Overread into Lead-In and Lead-Out : No
Fill up missing offset samples with silence : Yes
Delete leading and trailing silent blocks : No
Null samples used in CRC calculations : Yes
Used interface : Installed external ASPI interface
Used output format : User Defined Encoder
Selected bitrate : 1024 kBit/s
Quality : High
Add ID3 tag : No
Command line compressor : C:\Program Files\Exact Audio Copy\Flac\flac.exe
Additional command line options : -8 -A tukey(0.25) -A gauss(0.1875) -b 4096 -V -T "artist=%a" -T "title=%t" -T "album=%g" -T "date=%y" -T "tracknumber=%n" -T "genre=%m" %s --sector-align
TOC of the extracted CD
Track | Start | Length | Start sector | End sector
---------------------------------------------------------
1 | 0:00.32 | 3:21.43 | 32 | 15149
2 | 3:22.00 | 3:00.17 | 15150 | 28666
3 | 6:22.17 | 3:09.20 | 28667 | 42861
4 | 9:31.37 | 3:20.15 | 42862 | 57876
5 | 12:51.52 | 2:36.08 | 57877 | 69584
6 | 15:27.60 | 2:12.37 | 69585 | 79521
7 | 17:40.22 | 3:06.70 | 79522 | 93541
8 | 20:47.17 | 2:26.20 | 93542 | 104511
9 | 23:13.37 | 3:53.08 | 104512 | 121994
10 | 27:06.45 | 3:24.52 | 121995 | 137346
Range status and errors
Selected range
Filename D:\Torrents.ru\Chico Buarque\Chico Buarque - Não Vai Passar Vol. 4\Chico Buarque - Não Vai Passar Vol. 4.wav
Peak level 100.0 %
Range level 100.0 %
Test CRC E1826347
Copy CRC E1826347
Copy OK
No errors occurred
AccurateRip summary
Track 1 not present in database
Track 2 not present in database
Track 3 not present in database
Track 4 not present in database
Track 5 not present in database
Track 6 not present in database
Track 7 not present in database
Track 8 not present in database
Track 9 not present in database
Track 10 not present in database
None of the tracks are present in the AccurateRip database
End of status report
 
Audiochecker
AUDIOCHECKER v2.0 beta (build 457) - by Dester - opdester@freemail.hu
~~~~~~~~~~~~~~~~~~~~~~~~~~~~~~~~~~
-=== DO NOT EDIT THIS FILE! ===-
Path: ...\Chico Buarque - Não Vai Passar Vol. 4
1 -=- Chico Buarque - Não Vai Passar Vol. 4.flac -=- CDDA (100%)
40924340
[
По всем вопросам пишите личное сообщение пользователю M0p94ok.
10:25
182
Нет комментариев. Ваш будет первым!