Поиск

(Bossa Nova/Latin Jazz) Chico Buarque - Nao Vai Passar Vol. 2 - 1992, FLAC (image+.cue), lossless

(Bossa Nova/Latin Jazz) Chico Buarque - Nao Vai Passar Vol. 2 - 1992, FLAC (image+.cue), lossless
Треклист:
Chico Buarque - Não Vai Passar Vol. 2
Жанр: Bossa Nova/Latin Jazz
Год выпуска диска: 1992
Производитель диска: RGE Discos - 342.6127 - Brazil
Аудио кодек: FLAC
Тип рипа: image+.cue
Битрейт аудио: lossless
Продолжительность: 25:33
Трэклист:
01 - Madalena Foi Pro Mar (1:42)
02 - Carolina (2:40)
03 - Funeral De Um Lavrador (2:47)
04 - Fica (2:29)
05 - Noite Dos Mascarados (2:54)
06 - Quem Te Viu, Quem Te Vê (4:13)
07 - Realejo (3:32)
08 - Será Que Cristina Volta? (2:30)
09 - Um Chorinho (1:39)
10 - Ano Novo (1:13)
 
Scans
 
EAC Log
Exact Audio Copy V0.99 prebeta 5 from 4. May 2009
EAC extraction logfile from 22. October 2009, 22:58
Chico Buarque / Não Vai Passar - Vol. 2
Used drive : HL-DT-STDVDRAM GH20NS15 Adapter: 0 ID: 0
Read mode : Secure
Utilize accurate stream : Yes
Defeat audio cache : Yes
Make use of C2 pointers : No
Read offset correction : 667
Overread into Lead-In and Lead-Out : No
Fill up missing offset samples with silence : Yes
Delete leading and trailing silent blocks : No
Null samples used in CRC calculations : Yes
Used interface : Installed external ASPI interface
Used output format : User Defined Encoder
Selected bitrate : 1024 kBit/s
Quality : High
Add ID3 tag : No
Command line compressor : C:\Program Files\Exact Audio Copy\Flac\flac.exe
Additional command line options : -8 -A tukey(0.25) -A gauss(0.1875) -b 4096 -V -T "artist=%a" -T "title=%t" -T "album=%g" -T "date=%y" -T "tracknumber=%n" -T "genre=%m" %s --sector-align
TOC of the extracted CD
Track | Start | Length | Start sector | End sector
---------------------------------------------------------
1 | 0:00.33 | 1:42.25 | 33 | 7707
2 | 1:42.58 | 2:42.05 | 7708 | 19862
3 | 4:24.63 | 2:28.55 | 19863 | 31017
4 | 6:53.43 | 2:27.50 | 31018 | 42092
5 | 9:21.18 | 3:00.22 | 42093 | 55614
6 | 12:21.40 | 4:12.13 | 55615 | 74527
7 | 16:33.53 | 3:32.52 | 74528 | 90479
8 | 20:06.30 | 2:32.73 | 90480 | 101952
9 | 22:39.28 | 1:39.70 | 101953 | 109447
10 | 24:19.23 | 1:14.10 | 109448 | 115007
Range status and errors
Selected range
Filename D:\Torrents.ru\Chico Buarque\Chico Buarque - Não Vai Passar Vol. 2\Chico Buarque - Não Vai Passar Vol. 2.wav
Peak level 86.4 %
Range quality 100.0 %
Test CRC BBD008F9
Copy CRC BBD008F9
Copy OK
No errors occurred
AccurateRip summary
Track 1 not present in database
Track 2 not present in database
Track 3 not present in database
Track 4 not present in database
Track 5 not present in database
Track 6 not present in database
Track 7 not present in database
Track 8 not present in database
Track 9 not present in database
Track 10 not present in database
None of the tracks are present in the AccurateRip database
End of status report
 
Audiochecker
AUDIOCHECKER v2.0 beta (build 457) - by Dester - opdester@freemail.hu
~~~~~~~~~~~~~~~~~~~~~~~~~~~~~~~~~~
-=== DO NOT EDIT THIS FILE! ===-
Path: ...\Chico Buarque - Não Vai Passar Vol. 2
1 -=- Chico Buarque - Não Vai Passar Vol. 2.flac -=- CDDA (100%)
40899764
Download available for power users only.
10:25
197
Нет комментариев. Ваш будет первым!