Поиск

(Bossa Nova/Latin Jazz) Chico Buarque - Nao Vai Passar Vol. 1 - 1992, FLAC (image+.cue), lossless

(Bossa Nova/Latin Jazz) Chico Buarque - Nao Vai Passar Vol. 1 - 1992, FLAC (image+.cue), lossless
Треклист:
Chico Buarque - Não Vai Passar Vol. 1
Жанр: Bossa Nova/Latin Jazz
Год выпуска диска: 1992
Производитель диска: RGE Discos - 342.6115 - Brazil
Аудио кодек: FLAC
Тип рипа: image+.cue
Битрейт аудио: lossless
Продолжительность: 25:21
Трэклист:
01 - Pedro Pedreiro (2:35)
02 - Sonho De Carnaval (2:15)
03 - Amanhã, Ninguém Sabe (2:00)
04 - Você Não Ouviu (2:40)
05 - Juca (1:50)
06 - Tem Mais Samba (1:47)
07 - A Banda (2:10)
08 - Olê Olá (3:01)
09 - Meu Refrão (2:40)
10 - A Rita (2:02)
11 - Ela E Sua Janela (2:09)
 
Scans
 
Info
В 1992 году РГП Label выпустила четыре компиляции в Чико Буарке серия Não Vai Пассар. Это первый том из этой серии, в результате чего некоторые из композиций Buarque из замечательных 1964/1966 период, включая самые первые песни он написал, "Тем Лидеры Samba" (1964). Delicious акустических самбы с нежной, экономическое, и по-настоящему Carioca Samba договоренностей. Социальная критика, товарный знак Buarque, является показаны на "Педро Pedreiro", а тем более экзистенциальный рассматриваются в "Ela Ее Sua Janela". "Банда", представленный с национальным успеха Нара Leão в FMPB II в 1966 году (первое место, вместе с Жералду Вандре'S "Disparada"), входит, как это имеет чрезвычайно красивой "OLE Olá". Хороший способ узнать, работа одной из наиболее важных бразильских композиторов, но лишними для тех, кто уже его дискографии. ~ Альваро Недер, All Music Guide
In 1992, the RGE label released four compilations in the Chico Buarque series Não Vai Passar. This is volume one of that series, bringing some of Buarque's compositions from the wonderful 1964/1966 period, including the very first song he composed, "Tem Mais Samba" (1964). Delicious acoustic sambas with delicate, economic, and truly carioca samba arrangements. Social critic, Buarque's trademark, is shown on "Pedro Pedreiro," while more existential themes are explored in "Ela Ee Sua Janela." "A Banda," presented with national success by Nara Leão in the II FMPB in 1966 (first place, together with Geraldo Vandré's "Disparada"), is included, as is the extremely beautiful "Olê Olá." A good way of knowing the work of one of the most important Brazilian composers, but superfluous for those who already have his discography. ~ Alvaro Neder, All Music Guide
 
EAC Log
Exact Audio Copy V0.99 prebeta 5 from 4. May 2009
EAC extraction logfile from 22. October 2009, 22:40
Chico Buarque / Não Vai Passar Vol. 01
Used drive : HL-DT-STDVDRAM GH20NS15 Adapter: 0 ID: 0
Read mode : Secure
Utilize accurate stream : Yes
Defeat audio cache : Yes
Make use of C2 pointers : No
Read offset correction : 667
Overread into Lead-In and Lead-Out : No
Fill up missing offset samples with silence : Yes
Delete leading and trailing silent blocks : No
Null samples used in CRC calculations : Yes
Used interface : Installed external ASPI interface
Used output format : User Defined Encoder
Selected bitrate : 1024 kBit/s
Quality : High
Add ID3 tag : No
Command line compressor : C:\Program Files\Exact Audio Copy\Flac\flac.exe
Additional command line options : -8 -A tukey(0.25) -A gauss(0.1875) -b 4096 -V -T "artist=%a" -T "title=%t" -T "album=%g" -T "date=%y" -T "tracknumber=%n" -T "genre=%m" %s --sector-align
TOC of the extracted CD
Track | Start | Length | Start sector | End sector
---------------------------------------------------------
1 | 0:00.00 | 2:36.13 | 0 | 11712
2 | 2:36.13 | 2:13.15 | 11713 | 21702
3 | 4:49.28 | 2:00.60 | 21703 | 30762
4 | 6:50.13 | 2:41.40 | 30763 | 42877
5 | 9:31.53 | 1:50.05 | 42878 | 51132
6 | 11:21.58 | 1:49.52 | 51133 | 59359
7 | 13:11.35 | 2:12.15 | 59360 | 69274
8 | 15:23.50 | 3:03.33 | 69275 | 83032
9 | 18:27.08 | 2:40.40 | 83033 | 95072
10 | 21:07.48 | 2:02.72 | 95073 | 104294
11 | 23:10.45 | 2:10.33 | 104295 | 114077
Range status and errors
Selected range
Filename D:\Torrents.ru\Chico Buarque\Chico Buarque - Não Vai Passar Vol. 1\Chico Buarque - Não Vai Passar Vol. 01.wav
Peak level 95.8 %
Range quality 98.6 %
Test CRC 9672557E
Copy CRC 9672557E
Copy OK
No errors occurred
AccurateRip summary
Track 1 accurately ripped (confidence 1) [BF889FF7]
Track 2 accurately ripped (confidence 1) [DAD5BA36]
Track 3 accurately ripped (confidence 1) [7096F2B7]
Track 4 accurately ripped (confidence 1) [FDE8490B]
Track 5 accurately ripped (confidence 1) [47AAD37B]
Track 6 accurately ripped (confidence 1) [4EFC4C67]
Track 7 accurately ripped (confidence 1) [F6B6AAEE]
Track 8 accurately ripped (confidence 1) [B8324A22]
Track 9 accurately ripped (confidence 1) [DDFED379]
Track 10 accurately ripped (confidence 1) [EB2F273A]
Track 11 accurately ripped (confidence 1) [3BD0F1F1]
All tracks accurately ripped
End of status report
 
Audiochecker
AUDIOCHECKER v2.0 beta (build 457) - by Dester - opdester@freemail.hu
~~~~~~~~~~~~~~~~~~~~~~~~~~~~~~~~~~
-=== DO NOT EDIT THIS FILE! ===-
Path: ...\Chico Buarque - Não Vai Passar Vol. 1
1 -=- Chico Buarque - Não Vai Passar Vol. 01.flac -=- CDDA (100%)
22137492
По всем вопросам пишите личное сообщение пользователю M0p94ok.
10:24
390
Нет комментариев. Ваш будет первым!