Поиск

(Brazilian, Bossa Nova) Roberto Carlos & Caetano Veloso - E a Musica de Tom Jobim - 2008, FLAC (image+.cue), lossless

(Brazilian, Bossa Nova) Roberto Carlos & Caetano Veloso - E a Musica de Tom Jobim - 2008, FLAC (image+.cue), lossless
Треклист:
Roberto Carlos & Caetano Veloso
E a Musica de Tom Jobim
.
Жанр: Brazilian, Bossa Nova
Дата выпуска диска: ноябрь 2008
UPC: 8694 20502 9
Страна: Brazil
Производитель диска: Sony Music / BMG (с) 2008
Аудио кодек: FLAC
Тип рипа: image+.cue
Битрейт аудио: lossless
Продолжительность: 59:42
.
Tracklist:
01. Garota de Ipanema - Roberto Carlos, Caetano Veloso (3:55)
02. Wave - Roberto Carlos, Caetano Veloso (3:08)
03. Águas de Março - Daniel Jobim (3:28)
04. Por Toda a Minha Vida (Exaltação ao Amor) - Caetano Veloso (3:10)
05. Ela é Carioca - Caetano Veloso (3:16)
06. Inútil Paisagem - Caetano Veloso (3:52)
07. Meditação - Caetano Veloso (3:32)
08. O Que Tinha de Ser - Caetano Veloso (4:10)
09. Insensatez - Roberto Carlos (4:10)
10. Por Causa de Você - Roberto Carlos (4:47)
11. Lígia - Roberto Carlos, Tom Jobim (3:30)
12. Corcovado - Roberto Carlos (2:41)
13. Samba Do Avião - Roberto Carlos (2:23)
14. Eu Sei Que Vou Te Amar - Soneto Da Fidelidade - Roberto Carlos (4:46)
15. Tereza Da Praia - Roberto Carlos, Caetano Veloso (3:39)
16. Chega de Saudade - Roberto Carlos, Caetano Veloso (4:34)
.
 
Лог извлечения EAC
Exact Audio Copy V0.99 prebeta 4 from 23. January 2008
Отчёт EAC об извлечении, выполненном 11. декабря 2009, 16:43
Roberto Carlos & Caetano Veloso / E a Musica de Tom Jobim
Дисковод: ASUS SDRW-08D1S-U Adapter: 2 ID: 0
Режим чтения : Достоверность
Использование точного потока : Да
Отключение кэша аудио : Да
Использование указателей C2 : Нет
Коррекция смещения при чтении : 667
Способность читать области Lead-in и Lead-out : Да
Заполнение пропущенных сэмплов тишиной : Да
Удаление блоков с тишиной в начале и конце : Нет
При вычислениях CRC использовались нулевые сэмплы : Да
Интерфейс : Встроенный Win32-интерфейс для Win NT/2000
Выходной формат : Внутренние WAV-операции
Формат сэмплов : 44.100 Гц; 16 бит; стерео
TOC извлечённого CD
Трек | Старт | Длительность | Начальный сектор | Конечный сектор
---------------------------------------------------------------------
1 | 0:00.00 | 3:57.23 | 0 | 17797
2 | 3:57.23 | 3:11.10 | 17798 | 32132
3 | 7:08.33 | 3:30.33 | 32133 | 47915
4 | 10:38.66 | 3:12.36 | 47916 | 62351
5 | 13:51.27 | 3:18.73 | 62352 | 77274
6 | 17:10.25 | 3:54.62 | 77275 | 94886
7 | 21:05.12 | 3:34.23 | 94887 | 110959
8 | 24:39.35 | 4:13.01 | 110960 | 129935
9 | 28:52.36 | 4:12.67 | 129936 | 148902
10 | 33:05.28 | 4:49.73 | 148903 | 170650
11 | 37:55.26 | 3:32.50 | 170651 | 186600
12 | 41:28.01 | 2:43.32 | 186601 | 198857
13 | 44:11.33 | 2:25.63 | 198858 | 209795
14 | 46:37.21 | 4:48.33 | 209796 | 231428
15 | 51:25.54 | 3:42.08 | 231429 | 248086
16 | 55:07.62 | 4:34.27 | 248087 | 268663
Характеристики диапазона извлечения и сообщения об ошибках
Выбранный диапазон
Имя файла F:\My Documents\Music\Roberto Carlos & Caetano Veloso - E a Musica de Tom Jobim.wav
Пиковый уровень 97.7 %
Качество диапазона 100.0 %
CRC копии 27ED7B81
Копирование... OK
Ошибок не произошло
AccurateRip: сводка
Трек 1 нет в базе данных
Трек 2 нет в базе данных
Трек 3 нет в базе данных
Трек 4 нет в базе данных
Трек 5 нет в базе данных
Трек 6 нет в базе данных
Трек 7 нет в базе данных
Трек 8 нет в базе данных
Трек 9 нет в базе данных
Трек 10 нет в базе данных
Трек 11 нет в базе данных
Трек 12 нет в базе данных
Трек 13 нет в базе данных
Трек 14 нет в базе данных
Трек 15 нет в базе данных
Трек 16 нет в базе данных
Ни одного трека нет в базе AccurateRip
Конец отчёта
.
DVD5
.
По всем вопросам пишите личное сообщение пользователю M0p94ok.
10:23
254
Нет комментариев. Ваш будет первым!