Поиск

(Bossa Nova/Brazilian Jazz/Samba Jazz) VA - Просто Бразилии/Simply Brazil (Box Set) - 2007, FLAC (image+.cue), lossless

Треклист:
Various Artists - Просто Бразилии/Simply Brazil (Box Set)
Жанр: Bossa Nova/Brazilian Jazz/Samba Jazz
Год выпуска диска: 2007
Производитель диска: Union Square Music - SHO-SIMPLY CD029 - U.K.
Аудио кодек: FLAC
Тип рипа: image+.cue
Битрейт аудио: lossless
Продолжительность:
(Cd 1) 47:56
(Cd 2) 46:27
(Cd 3) 52:29
(Cd 4) 52:50
Доп. информация:
 
Cd 1 - Bossa Chill
Трэклист:
1. GAROTA DE IPANEMA - APARECIDA
2. AS ROSAS NAO FALAM - SARGERITO, NELSON & GALO PRETO
3. FALSA BAIANA/SAMBA DO AVIAO - GRUPO ITAPUA
4. MANHA DE CARNAVAL - TEIXEIRA, LUIS
5. FOR HALL - MAOGANI & JOYCE
6. AGUA DE BEBER - OSMIR, XAVIER
7. CHEGA DE SAUDADE (NO MORE BLUES) - MORTO, SIMAO
8. CORCOVADO (QUIET NIGHTS OF QUIET STARS) - SANTORO, PAULA
9. DESAFINADO - GRUPO CABANA
10. DINDI - SANTORO, PAULA & HUGH BURNS
11. MEDITATION (MEDITASAO) - SANTORO, PAULA
12. ONCE I LOVED - GRUPO CABANA
13. WAVE (VOU TE CONTAR) - GRUPO CABANA
 
EAC Log
Exact Audio Copy V0.99 prebeta 5 from 4. May 2009
EAC extraction logfile from 12. December 2009, 22:12
Disc 1 / Bossa Chill
Used drive : HL-DT-STDVDRAM GH20NS15 Adapter: 0 ID: 0
Read mode : Secure
Utilize accurate stream : Yes
Defeat audio cache : Yes
Make use of C2 pointers : No
Read offset correction : 667
Overread into Lead-In and Lead-Out : No
Fill up missing offset samples with silence : Yes
Delete leading and trailing silent blocks : No
Null samples used in CRC calculations : Yes
Used interface : Installed external ASPI interface
Used output format : User Defined Encoder
Selected bitrate : 1024 kBit/s
Quality : High
Add ID3 tag : No
Command line compressor : C:\Program Files\Exact Audio Copy\Flac\flac.exe
Additional command line options : -8 -A tukey(0.25) -A gauss(0.1875) -b 4096 -V -T "artist=%a" -T "title=%t" -T "album=%g" -T "date=%y" -T "tracknumber=%n" -T "genre=%m" %s --sector-align
TOC of the extracted CD
Track | Start | Length | Start sector | End sector
---------------------------------------------------------
1 | 0:00.00 | 5:49.40 | 0 | 26214
2 | 5:49.40 | 4:32.55 | 26215 | 46669
3 | 10:22.20 | 3:49.05 | 46670 | 63849
4 | 14:11.25 | 2:59.02 | 63850 | 77276
5 | 17:10.27 | 3:09.72 | 77277 | 91523
6 | 20:20.24 | 3:48.16 | 91524 | 108639
7 | 24:08.40 | 2:20.14 | 108640 | 119153
8 | 26:28.54 | 3:31.73 | 119154 | 135051
9 | 30:00.52 | 4:30.56 | 135052 | 155357
10 | 34:31.33 | 2:50.32 | 155358 | 168139
11 | 37:21.65 | 2:31.48 | 168140 | 179512
12 | 39:53.38 | 3:09.74 | 179513 | 193761
13 | 43:03.37 | 4:53.05 | 193762 | 215741
Range status and errors
Selected range
Filename D:\Torrents.ru\Simply Brazil\VA - Simply Brazil (Box Set)\Disc 1 - Bossa Chill\Disc 1 - Bossa Chill.wav
Peak level 97.7 %
Range quality 100.0 %
Test CRC 1F2A72D4
Copy CRC 1F2A72D4
Copy OK
No errors occurred
End of status report
 
Audiochecker
AUDIOCHECKER v2.0 beta (build 457) - by Dester - opdester@freemail.hu
~~~~~~~~~~~~~~~~~~~~~~~~~~~~~~~~~~
-=== DO NOT EDIT THIS FILE! ===-
Path: ...\Disc 1 - Bossa Chill
1 -=- Disc 1 - Bossa Chill.flac -=- CDDA (99%)
53279908
 
Cd 2 - Bossa Grooves
Трэклист:
1. OS GRILOS - VALLE, MARCOS & VICTOR BIGLIONE
2. CARIOCA DA GEMA - DE OLIVEIRA, AGENOR
3. PATIFAIRA - LESSA, RODRIGO
4. SWAY - RIO COMBO
5. DREAMER (VIVO SONHANDO) - GRUPO CABANA
6. ANOS DOURADOS (LOOKS LIKE DECEMBER) - MORTO, SIMAO
7. SAMBA PA TI - RIO COMBO
8. TRISTE - SANTORO, PAULA
9. USELESS LANDSCAPE - SANTORO, PAULA & HUGH BURNS
10. HOW INSENSITIVE (INSENSATEZ) - MORTO, SIMAO
11. BANANEIRA - AQUILO DEL NISSO
12. O GRANDE AMOR - MORTO, SIMAO
13. GIRL FROM IPANEMA - SANTORO, PAULA
 
EAC Log
Exact Audio Copy V0.99 prebeta 5 from 4. May 2009
EAC extraction logfile from 12. December 2009, 22:48
Disc 2 / Bossa Grooves
Used drive : HL-DT-STDVDRAM GH20NS15 Adapter: 0 ID: 0
Read mode : Secure
Utilize accurate stream : Yes
Defeat audio cache : Yes
Make use of C2 pointers : No
Read offset correction : 667
Overread into Lead-In and Lead-Out : No
Fill up missing offset samples with silence : Yes
Delete leading and trailing silent blocks : No
Null samples used in CRC calculations : Yes
Used interface : Installed external ASPI interface
Used output format : User Defined Encoder
Selected bitrate : 1024 kBit/s
Quality : High
Add ID3 tag : No
Command line compressor : C:\Program Files\Exact Audio Copy\Flac\flac.exe
Additional command line options : -8 -A tukey(0.25) -A gauss(0.1875) -b 4096 -V -T "artist=%a" -T "title=%t" -T "album=%g" -T "date=%y" -T "tracknumber=%n" -T "genre=%m" %s --sector-align
TOC of the extracted CD
Track | Start | Length | Start sector | End sector
---------------------------------------------------------
1 | 0:00.00 | 5:04.60 | 0 | 22859
2 | 5:04.60 | 2:16.37 | 22860 | 33096
3 | 7:21.22 | 3:52.06 | 33097 | 50502
4 | 11:13.28 | 2:23.61 | 50503 | 61288
5 | 13:37.14 | 3:52.09 | 61289 | 78697
6 | 17:29.23 | 2:24.30 | 78698 | 89527
7 | 19:53.53 | 3:28.37 | 89528 | 105164
8 | 23:22.15 | 2:48.54 | 105165 | 117818
9 | 26:10.69 | 2:56.01 | 117819 | 131019
10 | 29:06.70 | 3:40.40 | 131020 | 147559
11 | 32:47.35 | 6:28.70 | 147560 | 176729
12 | 39:16.30 | 3:58.37 | 176730 | 194616
13 | 43:14.67 | 3:13.03 | 194617 | 209094
Range status and errors
Selected range
Filename D:\Torrents.ru\Simply Brazil\VA - Simply Brazil (Box Set)\Disc 2 - Bossa Grooves\Disc 2 - Bossa Grooves.wav
Peak level 97.7 %
Range quality 100.0 %
Copy CRC F66B13C5
Copy OK
No errors occurred
End of status report
 
Audiochecker
AUDIOCHECKER v2.0 beta (build 457) - by Dester - opdester@freemail.hu
~~~~~~~~~~~~~~~~~~~~~~~~~~~~~~~~~~
-=== DO NOT EDIT THIS FILE! ===-
Path: ...\Disc 2 - Bossa Grooves
1 -=- Disc 2 - Bossa Grooves.flac -=- CDDA (100%)
183524228
 
Cd 3 - Samba Chill
Трэклист:
1. VATAPA - GRUPO ITAPUA
2. A LUZ DE TIETA - GRUPO ITAPUA
3. ESPERANCA - APERECIDA
4. FLOR DE LIS - GRUPO ITAPUA
5. SO QUERO UM XODO - GRUPO ITAPUA
6. SAUDADE DE BAHIA - TIMOTEO, FRANCISCO
7. SUMMER SAMBA (SO NICE) - RIO COMBO
8. SO DANCO SAMBA - MARQUES, GUSTAVO
9. SAMPA - GRUPO ITAPUA
10. LEAOZINHO - GRUPO ITAPUA
11. VENTOS DE VERAO - GRUPO ITAPUA
12. ONE NOTE SAMBA - GRUPO CABANA
13. NAO TE ESQUECAS DE MIM - MEDEIROS, ELTON
14. FAVELA - GRUPO CABANA
15. VOCE NAO ENTENDE NADA - GRUPO CABANA
16. SAMBA DE MINHA TERRA - TIMOTEO, FRANCISCO
 
EAC Log
Exact Audio Copy V0.99 prebeta 5 from 4. May 2009
EAC extraction logfile from 13. December 2009, 0:14
Disc 3 / Samba Chill
Used drive : HL-DT-STDVDRAM GH20NS15 Adapter: 0 ID: 0
Read mode : Secure
Utilize accurate stream : Yes
Defeat audio cache : Yes
Make use of C2 pointers : No
Read offset correction : 667
Overread into Lead-In and Lead-Out : No
Fill up missing offset samples with silence : Yes
Delete leading and trailing silent blocks : No
Null samples used in CRC calculations : Yes
Used interface : Installed external ASPI interface
Used output format : User Defined Encoder
Selected bitrate : 1024 kBit/s
Quality : High
Add ID3 tag : No
Command line compressor : C:\Program Files\Exact Audio Copy\Flac\flac.exe
Additional command line options : -8 -A tukey(0.25) -A gauss(0.1875) -b 4096 -V -T "artist=%a" -T "title=%t" -T "album=%g" -T "date=%y" -T "tracknumber=%n" -T "genre=%m" %s --sector-align
TOC of the extracted CD
Track | Start | Length | Start sector | End sector
---------------------------------------------------------
1 | 0:00.00 | 2:58.13 | 0 | 13362
2 | 2:58.13 | 3:29.26 | 13363 | 29063
3 | 6:27.39 | 3:03.57 | 29064 | 42845
4 | 9:31.21 | 2:37.10 | 42846 | 54630
5 | 12:08.31 | 3:44.47 | 54631 | 71477
6 | 15:53.03 | 3:40.32 | 71478 | 88009
7 | 19:33.35 | 3:22.16 | 88010 | 103175
8 | 22:55.51 | 2:28.68 | 103176 | 114343
9 | 25:24.44 | 2:57.36 | 114344 | 127654
10 | 28:22.05 | 4:26.69 | 127655 | 147673
11 | 32:48.74 | 3:28.07 | 147674 | 163280
12 | 36:17.06 | 4:13.11 | 163281 | 182266
13 | 40:30.17 | 3:55.33 | 182267 | 199924
14 | 44:25.50 | 2:55.14 | 199925 | 213063
15 | 47:20.64 | 2:52.74 | 213064 | 226037
16 | 50:13.63 | 2:15.70 | 226038 | 236232
Range status and errors
Selected range
Filename D:\Torrents.ru\Simply Brazil\VA - Simply Brazil (Box Set)\Disc 3 - Samba Chill\Disc 3 - Samba Chill.wav
Peak level 97.7 %
Range quality 100.0 %
Test CRC 541E61A7
Copy CRC 541E61A7
Copy OK
No errors occurred
End of status report
 
Audiochecker
AUDIOCHECKER v2.0 beta (build 457) - by Dester - opdester@freemail.hu
~~~~~~~~~~~~~~~~~~~~~~~~~~~~~~~~~~
-=== DO NOT EDIT THIS FILE! ===-
Path: ...\Disc 3 - Samba Chill
1 -=- Disc 3 - Samba Chill.flac -=- CDDA (100%)
261176772
 
Cd 4 - Samba Club
Трэклист:
1. MAS QUE NADA - RIO COMBO
2. UM A ZERO - MOURA, PAULO
3. MACUMBA MACUMBE - TIMOTEO, FRANCISCO
4. AQUI OH - MARIA, MARCIA
5. ME LEVA AO CARNAVAL - PINTO, OSWALDO
6. MARACANGALHA - TIMOTEO, FRANCISCO
7. TIGRESA - GRUPO ITAPUA
8. A CABECA - FAMILIA ROITMAN
9. PARTIDO EM TRES - TRIO CALAFRIA
10. SAMBA DE UMA NOTA SO - APARECIDA
11. O TRENZINHO DO CAIPIRA - MARIA, MARCIA
12. CAPOEIRA DO VENTO - TIMOTEO, FRANCISCO
13. MINORIAS - MARIA, MARCIA
14. EU CANTO SAMBA - DORINA
15. BRAZIL (AQUERELA DO BRAZIL) - RIO COMBO
 
EAC Log
Exact Audio Copy V0.99 prebeta 5 from 4. May 2009
EAC extraction logfile from 13. December 2009, 14:45
Disc 4 / Samba Club
Used drive : HL-DT-STDVDRAM GH20NS15 Adapter: 0 ID: 0
Read mode : Secure
Utilize accurate stream : Yes
Defeat audio cache : Yes
Make use of C2 pointers : No
Read offset correction : 667
Overread into Lead-In and Lead-Out : No
Fill up missing offset samples with silence : Yes
Delete leading and trailing silent blocks : No
Null samples used in CRC calculations : Yes
Used interface : Installed external ASPI interface
Used output format : User Defined Encoder
Selected bitrate : 1024 kBit/s
Quality : High
Add ID3 tag : No
Command line compressor : C:\Program Files\Exact Audio Copy\Flac\flac.exe
Additional command line options : -8 -A tukey(0.25) -A gauss(0.1875) -b 4096 -V -T "artist=%a" -T "title=%t" -T "album=%g" -T "date=%y" -T "tracknumber=%n" -T "genre=%m" %s --sector-align
TOC of the extracted CD
Track | Start | Length | Start sector | End sector
---------------------------------------------------------
1 | 0:00.00 | 3:18.60 | 0 | 14909
2 | 3:18.60 | 3:11.63 | 14910 | 29297
3 | 6:30.48 | 2:56.10 | 29298 | 42507
4 | 9:26.58 | 2:49.53 | 42508 | 55235
5 | 12:16.36 | 4:28.25 | 55236 | 75360
6 | 16:44.61 | 3:11.35 | 75361 | 89720
7 | 19:56.21 | 4:02.61 | 89721 | 107931
8 | 23:59.07 | 3:06.36 | 107932 | 121917
9 | 27:05.43 | 4:34.26 | 121918 | 142493
10 | 31:39.69 | 3:01.02 | 142494 | 156070
11 | 34:40.71 | 3:10.12 | 156071 | 170332
12 | 37:51.08 | 4:25.36 | 170333 | 190243
13 | 42:16.44 | 4:52.26 | 190244 | 212169
14 | 47:08.70 | 2:45.69 | 212170 | 224613
15 | 49:54.64 | 2:55.23 | 224614 | 237761
Range status and errors
Selected range
Filename D:\Torrents.ru\Simply Brazil\VA - Simply Brazil (Box Set)\Disc 4 - Samba Club\Disc 4 - Samba Club.wav
Peak level 97.8 %
Range quality 99.9 %
Test CRC 55C66251
Copy CRC 55C66251
Copy OK
No errors occurred
End of status report
 
Audiochecker
AUDIOCHECKER v2.0 beta (build 457) - by Dester - opdester@freemail.hu
~~~~~~~~~~~~~~~~~~~~~~~~~~~~~~~~~~
-=== DO NOT EDIT THIS FILE! ===-
Path: ...\Disc 4 - Samba Club
1 -=- Disc 4 - Samba Club.flac -=- CDDA (100%)
96369636
По всем вопросам пишите личное сообщение пользователю M0p94ok.
10:32
163
Нет комментариев. Ваш будет первым!