Поиск

(Funk, Jazz, Makossa) Manu Dibango - Africadelic - 1973, FLAC (tracks+.cue), lossless

Треклист:
Manu Dibango - Africadelic
Жанр: Funk, Jazz, Makossa
Год выпуска диска: 1973
Производитель диска: Spain
Аудио кодек: FLAC
Тип рипа: tracks+.cue
Битрейт аудио: lossless
Трэклист:
1. Panther, The
2. Soul Fiesta
3. Africadelic
4. African Battle
5. Black Beauty
6. African Carnaval
7. Moving Waves
8. Afro-Soul
9. Oriental Sunset
10. Monkey Beat
11. Wa-Wa
12. Percussion Storm
 
скрытый текст
Exact Audio Copy V0.99 prebeta 4 from 23. January 2008
EAC extraction logfile from 14. December 2008, 20:52
Manu Dibango / Africadelic
Used drive : HL-DT-STDVD-ROM GDR8162B Adapter: 1 ID: 0
Read mode : Secure
Utilize accurate stream : Yes
Defeat audio cache : Yes
Make use of C2 pointers : No
Read offset correction : 102
Overread into Lead-In and Lead-Out : No
Fill up missing offset samples with silence : Yes
Delete leading and trailing silent blocks : No
Null samples used in CRC calculations : Yes
Used interface : Installed external ASPI interface
Used output format : Internal WAV Routines
Sample format : 44.100 Hz; 16 Bit; Stereo
TOC of the extracted CD
Track | Start | Length | Start sector | End sector
---------------------------------------------------------
1 | 0:00.00 | 2:29.05 | 0 | 11179
2 | 2:29.05 | 2:08.74 | 11180 | 20853
3 | 4:38.04 | 2:16.27 | 20854 | 31080
4 | 6:54.31 | 3:00.72 | 31081 | 44652
5 | 9:55.28 | 2:50.12 | 44653 | 57414
6 | 12:45.40 | 3:16.41 | 57415 | 72155
7 | 16:02.06 | 4:03.14 | 72156 | 90394
8 | 20:05.20 | 2:44.29 | 90395 | 102723
9 | 22:49.49 | 1:47.59 | 102724 | 110807
10 | 24:37.33 | 2:42.43 | 110808 | 123000
11 | 27:20.01 | 3:03.68 | 123001 | 136793
12 | 30:23.69 | 1:54.07 | 136794 | 145350
Range status and errors
Selected range
Filename F:\XAVIER\Manu Dibango - Africadelic.wav
Peak level 100.0 %
Range quality 100.0 %
Test CRC 29448179
Copy CRC 29448179
Copy OK
No errors occurred
AccurateRip summary
Track 1 not present in database
Track 2 not present in database
Track 3 not present in database
Track 4 not present in database
Track 5 not present in database
Track 6 not present in database
Track 7 not present in database
Track 8 not present in database
Track 9 not present in database
Track 10 not present in database
Track 11 not present in database
Track 12 not present in database
None of the tracks are present in the AccurateRip database
End of status report
Download available for power users only.
10:33
184
Нет комментариев. Ваш будет первым!