Поиск

(Bossa Nova/Brazilian Jazz) Tamba Trio - Tamba Trio - 1966, FLAC (image+.cue), lossless

Треклист:
Tamba Trio - Tamba Trio
Жанр: Bossa Nova/Brazilian Jazz
Год выпуска диска: 1966
Производитель диска: Philips - P 632.782 L - Brazil
Аудио кодек: FLAC
Тип рипа: image+.cue
Битрейт аудио: lossless
Продолжительность: 40:20
Трэклист:
01 - Canto de Ossanha (Baden Powell / Vinicius de Moraes)
02 - Minha (Francis Hime / Ruy Guerra)
03 - Iemanjá (Gilberto Gil / Othon Bastos)
04 - Canção do Nosso Amor (Silveira / Dalto)
05 - Quem Me Dera (Caetano Veloso)
06 - Sem Mais Adeus (Francis Hime / Vinicius de Moraes)
07 - Procissão (Gilberto Gil)
08 - Imagem (Luis Eça / Aloysio de Oliveira)
09 - Pra Dizer Adeus (Edu Lobo / Torquato Neto)
10 - Tristeza (Haroldo Lobo / Niltinho Tristeza)
11 - No Carnaval (Caetano Veloso / Jota)
12 - Veleiro (Edu Lobo)
 
Info
Тамба трио музыкальная группа, образованная в 1960 годах. Первоначально образованный Луис ЭКА (фортепиано, вокал и механизмы), Бебето (бас-гитара, флейта, саксофон, вокал) и Helcio Милито (ударные, перкуссия, вокал), трио Тамба начали складываться еще с певицей Майса, а затем певицы Лени Андраде в сезон в клубе Манхэттен, работая с Луиса Карлоса Виньяш (фортепиано) и Роберто Menescal (гитара). С 1967 года с дополнениями от басиста Дориан Феррейра, Бебето будет действовать только как флейтист, превратив трио, квартет Тамба 4. Два года спустя, после ухода Луиса ЭКА, которая будет формировать свою группу "Святое семейство", пианист Laércio де Фрейтас приходит на место. Четверка будет продолжаться до 1970 года. Только в 1972 году, Тамба трио возвращается с тремя первоначальными членами, запись двух альбомов для RCA Records. В 1976 году, в диапазоне, а шесть лет спустя, группа возвращается, проведение презентаций и регистрации ООО "Трио Тамба 20 лет успеха". Начиная с 1989 года, барабанщик Рубенс Охана, которые были частью Тамба Trio, она восстанавливает в этот набор, заменив Hélcio Милито. Группа продолжалось до 1992 года, когда Луис Eca умер. Трио также сопровождал художников, таких как Карлос Лира, Эду Лобо, Нара Леао, Сильвия Теллес, Quarteto EM Сай и Иоанна Боско.
O Tamba Trio foi um conjunto musical formado na década de 1960. Formado originalmente por Luiz Eça (piano, vocal e arranjos), Bebeto Castilho (contrabaixo, flauta, sax e vocal) e Helcio Milito (bateria, percussão e vocal), o Tamba Trio começou a tomar forma ainda acompanhando a cantora Maysa e depois a cantora Leny Andrade em uma temporada na boate Manhattan, atuando ao lado de Luiz Carlos Vinhas (piano) e Roberto Menescal (violão). A partir de 1967, com a entrada do baixista Dório Ferreira, Bebeto passaria a atuar apenas como flautista, transformando assim o trio no quarteto Tamba 4. Dois anos depois, com a saída de Luiz Eça, que formaria o seu grupo "A Sagrada Família", o pianista Laércio de Freitas entra em seu lugar. O quarteto duraria até 1970. Só em 1972, o Tamba Trio retorna com os três integrantes originais, gravando dois discos pela gravadora RCA. Em 1976, mais um intervalo, e seis anos depois, o grupo volta, fazendo apresentações e gravando o LP "Tamba Trio 20 Anos de Sucesso". A partir de 1989, o baterista Rubens Ohana, que já tinha feito parte do Tamba Trio, se reintegra a este conjunto, substituindo Hélcio Milito. O grupo continuou até 1992, quando Luiz Eça veio a falecer. O trio também acompanhou artistas como Carlos Lyra, Edu Lobo, Nara Leão, Sylvia Telles, Quarteto em Cy e João Bosco.
(1962-1964)
* Luiz Eça
* Bebeto Castilho
* Hélcio Milito
(1964-1966)
* Luiz Eça
* Bebeto Castilho
* Rubens Ohana
(1967-1968)
* Luiz Eça
* Bebeto Castilho
* Rubens Ohana
* Dório Ferreira
(1969)
* Laercio de Freitas
* Bebeto Castilho
* Rubens Ohana
* Dório Ferreira
(1972-1975 e 1982-1984)
* Luiz Eça
* Bebeto Castilho
* Hélcio Milito
(1989-1992)
* Luiz Eça
* Bebeto Castilho
* Rubens Ohana
 
EAC Log
Exact Audio Copy V0.99 prebeta 5 from 4. May 2009
EAC extraction logfile from 13. December 2009, 16:03
Tamba Trio / Tamba Trio
Used drive : HL-DT-STDVDRAM GH20NS15 Adapter: 0 ID: 0
Read mode : Secure
Utilize accurate stream : Yes
Defeat audio cache : Yes
Make use of C2 pointers : No
Read offset correction : 667
Overread into Lead-In and Lead-Out : No
Fill up missing offset samples with silence : Yes
Delete leading and trailing silent blocks : No
Null samples used in CRC calculations : Yes
Used interface : Installed external ASPI interface
Used output format : User Defined Encoder
Selected bitrate : 1024 kBit/s
Quality : High
Add ID3 tag : No
Command line compressor : C:\Program Files\Exact Audio Copy\Flac\flac.exe
Additional command line options : -8 -A tukey(0.25) -A gauss(0.1875) -b 4096 -V -T "artist=%a" -T "title=%t" -T "album=%g" -T "date=%y" -T "tracknumber=%n" -T "genre=%m" %s --sector-align
TOC of the extracted CD
Track | Start | Length | Start sector | End sector
---------------------------------------------------------
1 | 0:00.00 | 3:54.36 | 0 | 17585
2 | 3:54.36 | 2:51.26 | 17586 | 30436
3 | 6:45.62 | 3:01.11 | 30437 | 44022
4 | 9:46.73 | 3:40.54 | 44023 | 60576
5 | 13:27.52 | 3:56.61 | 60577 | 78337
6 | 17:24.38 | 3:04.69 | 78338 | 92206
7 | 20:29.32 | 3:03.08 | 92207 | 105939
8 | 23:32.40 | 3:20.71 | 105940 | 121010
9 | 26:53.36 | 3:18.06 | 121011 | 135866
10 | 30:11.42 | 3:29.09 | 135867 | 151550
11 | 33:40.51 | 3:01.41 | 151551 | 165166
12 | 36:42.17 | 3:38.52 | 165167 | 181568
Range status and errors
Selected range
Filename D:\Torrents.ru\Tamba Trio\Tamba Trio - Tamba Trio\Tamba Trio - Tamba Trio.wav
Peak level 99.8 %
Range quality 100.0 %
Test CRC DB204D5D
Copy CRC DB204D5D
Copy OK
No errors occurred
End of status report
 
Audiochecker
AUDIOCHECKER v2.0 beta (build 457) - by Dester - opdester@freemail.hu
~~~~~~~~~~~~~~~~~~~~~~~~~~~~~~~~~~
-=== DO NOT EDIT THIS FILE! ===-
Path: ...\Tamba Trio - Tamba Trio
1 -=- Tamba Trio - Tamba Trio.flac -=- CDDA (100%)
172280884
10:32
326
Нет комментариев. Ваш будет первым!