Поиск

(Bossa Nova/Brazilian Jazz) Maucha Adnet - The Jobim Songbook - 2006, APE (image+.cue), lossless

(Bossa Nova/Brazilian Jazz) Maucha Adnet - The Jobim Songbook - 2006, APE (image+.cue), lossless
Треклист:
Maucha Adnet - The Jobim Songbook
Жанр: Bossa Nova/Brazilian Jazz
Страна-производитель диска: Italy/EU
Год издания диска: 2006 (rec in 2004)
Издатель (лейбл): Kind Of Blue Records
Номер по каталогу: KOB10003
Страна: Brazil
Аудиокодек: APE (*.ape)
Тип рипа: image+.cue
Битрейт аудио: lossless
Продолжительность: 01:02:00
Источник (релизер): Диск из личной коллекции
Наличие сканов в содержимом раздачи: да
Треклист:
1. Vivo Sonhando
2. So Tinha de Ser Com Voce
3. Insensatez
4. Ela e Carioca
5. Chega de Saudade
6. Samba Do Aviao
7. Aguas de Marco
8. Meditacao
9. Desafinado
10. Corcovado
11. Outra Vez
12. Garota de Ipanema
13. Agua de Beber
 
Лог создания рипа
Exact Audio Copy V0.99 prebeta 4 from 23. January 2008
Отчёт EAC об извлечении, выполненном 5. февраля 2012, 18:20
Maucha Adnet / The Jobim Songbook
Дисковод: HL-DT-STDVDRAM GH20LS10 Adapter: 3 ID: 1
Режим чтения : Достоверность
Использование точного потока : Да
Отключение кэша аудио : Да
Использование указателей C2 : Нет
Коррекция смещения при чтении : 667
Способность читать области Lead-in и Lead-out : Нет
Заполнение пропущенных сэмплов тишиной : Да
Удаление блоков с тишиной в начале и конце : Нет
При вычислениях CRC использовались нулевые сэмплы : Да
Интерфейс : Встроенный Win32-интерфейс для Win NT/2000
Выходной формат : Внутренние WAV-операции
Формат сэмплов : 44.100 Гц; 16 бит; стерео
TOC извлечённого CD
Трек | Старт | Длительность | Начальный сектор | Конечный сектор
---------------------------------------------------------------------
1 | 0:00.00 | 4:37.13 | 0 | 20787
2 | 4:37.13 | 4:19.71 | 20788 | 40283
3 | 8:57.09 | 4:57.49 | 40284 | 62607
4 | 13:54.58 | 4:33.05 | 62608 | 83087
5 | 18:27.63 | 4:54.44 | 83088 | 105181
6 | 23:22.32 | 5:26.09 | 105182 | 129640
7 | 28:48.41 | 3:55.06 | 129641 | 147271
8 | 32:43.47 | 3:59.70 | 147272 | 165266
9 | 36:43.42 | 4:59.19 | 165267 | 187710
10 | 41:42.61 | 4:29.51 | 187711 | 207936
11 | 46:12.37 | 5:10.15 | 207937 | 231201
12 | 51:22.52 | 6:01.34 | 231202 | 258310
13 | 57:24.11 | 4:51.21 | 258311 | 280156
Характеристики диапазона извлечения и сообщения об ошибках
Выбранный диапазон
Имя файла D:\Lossless\Maucha Adnet - The Jobim Songbook -2006\m.wav
Пиковый уровень 97.7 %
Качество диапазона 99.9 %
CRC теста 7375E672
CRC копии 7375E672
Копирование... OK
Ошибок не произошло
AccurateRip: сводка
Трек 1 точное извлечение (доверие 3) [CF8F545D]
Трек 2 точное извлечение (доверие 3) [30AF89F4]
Трек 3 точное извлечение (доверие 3) [35F97B8D]
Трек 4 точное извлечение (доверие 3) [9B6462B9]
Трек 5 точное извлечение (доверие 3) [C4E3F71D]
Трек 6 точное извлечение (доверие 4) [3AC16538]
Трек 7 точное извлечение (доверие 3) [30D5BFC7]
Трек 8 точное извлечение (доверие 3) [785D9185]
Трек 9 точное извлечение (доверие 3) [AABCB084]
Трек 10 точное извлечение (доверие 2) [BFCE090B]
Трек 11 точное извлечение (доверие 2) [0F647711]
Трек 12 точное извлечение (доверие 1) [67787379]
Трек 13 точное извлечение (доверие 1) [99656B04]
Все треки извлечены точно
Конец отчёта
 
Содержание индексной карты (.CUE)
REM GENRE "Brasilian Music"
REM DATE 2006
REM DISCID B20E970D
REM COMMENT "ExactAudioCopy v0.99pb4"
PERFORMER "Maucha Adnet"
TITLE "The Jobim Songbook"
FILE "m.wav" WAVE
TRACK 01 AUDIO
TITLE "Vivo Sonhando"
PERFORMER "Maucha Adnet"
INDEX 01 00:00:00
TRACK 02 AUDIO
TITLE "Sу Tinha De Ser Com Vocк"
PERFORMER "Maucha Adnet"
INDEX 00 04:35:13
INDEX 01 04:37:13
TRACK 03 AUDIO
TITLE "Insensatez"
PERFORMER "Maucha Adnet"
INDEX 00 08:55:09
INDEX 01 08:57:09
TRACK 04 AUDIO
TITLE "Ela Й Carioca"
PERFORMER "Maucha Adnet"
INDEX 00 13:52:58
INDEX 01 13:54:58
TRACK 05 AUDIO
TITLE "Chega De Saudade"
PERFORMER "Maucha Adnet"
INDEX 00 18:25:63
INDEX 01 18:27:63
TRACK 06 AUDIO
TITLE "Samba Do Aviгo"
PERFORMER "Maucha Adnet"
INDEX 00 23:20:32
INDEX 01 23:22:32
TRACK 07 AUDIO
TITLE "Бguas De Marзo"
PERFORMER "Maucha Adnet"
INDEX 00 28:46:41
INDEX 01 28:48:41
TRACK 08 AUDIO
TITLE "Meditaзгo"
PERFORMER "Maucha Adnet"
INDEX 00 32:41:47
INDEX 01 32:43:47
TRACK 09 AUDIO
TITLE "Desafinado"
PERFORMER "Maucha Adnet"
INDEX 00 36:41:42
INDEX 01 36:43:42
TRACK 10 AUDIO
TITLE "Corcovado"
PERFORMER "Maucha Adnet"
INDEX 00 41:40:61
INDEX 01 41:42:61
TRACK 11 AUDIO
TITLE "Outra Vez"
PERFORMER "Maucha Adnet"
INDEX 00 46:10:37
INDEX 01 46:12:37
TRACK 12 AUDIO
TITLE "Garota De Ipanema"
PERFORMER "Maucha Adnet"
INDEX 00 51:20:52
INDEX 01 51:22:52
TRACK 13 AUDIO
TITLE "Бgua De Beber"
PERFORMER "Maucha Adnet"
INDEX 00 57:22:11
INDEX 01 57:24:11
 
Состав
Maucha Adnet - vocals
Joe Lovano - saxophone
Randy Brecker - flugelhorn
Claudio Roditi - flugelhorn
Duduka Da Fonseca - drums
Mario Adnet - acoustic guitar
Jay Ashby - trombone
Nilson Matta - acoustic bass
Helio Alves - piano
Romero Lubambo - acoustic guitar
01:28
257
Нет комментариев. Ваш будет первым!