Поиск

(Latin Jazz, Post-Bop, World Fusion) Ray Mantilla & The New Space Station - Man-Ti-Ya - 2004, APE (image+.cue), lossless

(Latin Jazz, Post-Bop, World Fusion) Ray Mantilla & The New Space Station - Man-Ti-Ya - 2004, APE (image+.cue), lossless
Треклист:
Ray Mantilla & The New Space Station - Man-Ti-Ya
Жанр: Latin Jazz, Post-Bop, World Fusion
Страна-производитель диска: США
Год издания диска: 2004
Издатель (лейбл): Savant
Номер по каталогу: SCD 2059
Страна: США
Аудиокодек: APE (*.ape)
Тип рипа: image+.cue
Битрейт аудио: lossless
Продолжительность: 55:35
Источник (релизер): dreadbull (hqshare)
Наличие сканов в содержимом раздачи: да
Треклист:
01. Apple Turnover (mantilla) - 5:16
02. Mother's Day (Martinez) - 6:38
03. TBA (Mantilla-Elder) - 2:54
04. Hop Scotch (Chambers) - 7:34
05. The Man I Love (Gershwin-Gerswhin) - 5:22
06. African Holiday (Mantilla) - 4:51
07. Eight Ball (Mantilla) - 7:29
08. Go Between (Mantilla) - 2:43
09. Mantillon (Martinez) - 7:12
10. Mantilla's Jam Too (Mantilla) - 5:38
Состав:
Ray Mantilla - percussion, leader
Willie Williams - soprano saxophone, tenor saxophone
Enrique Fernandez - baritone saxophone, flute
Guido Gonzalez - trumpet
Edy Martinez - piano
Cucho Martinez - bass
Bill Elder - drums
Recorded at Sony Studios, Studio B, New York on April 12, 2004.
 
Лог создания рипа
EAC extraction logfile from 21. January 2010, 16:46 for CD
Ray Mantilla & The New Space Station / Man-Ti-Ya
Used drive : PLEXTOR DVDR PX-750A Adapter: 0 ID: 1
Read mode : Secure with NO C2, accurate stream, disable cache
Read offset correction : 102
Overread into Lead-In and Lead-Out : No
Used output format : Internal WAV Routines
44.100 Hz; 16 Bit; Stereo
Other options :
Fill up missing offset samples with silence : Yes
Delete leading and trailing silent blocks : No
Installed external ASPI interface
Range status and errors
Selected range
Filename E:\Donkey Files\Ray Mantilla - Man-Ti-Ya (2004, Savant) [eac-ape-scans] byDrBull\CDImage.wav
Peak level 100.0 %
Range quality 100.0 %
CRC E4FB1061
Copy OK
No errors occured
End of status report
 
Содержание индексной карты (.CUE)
REM GENRE Jazz
REM DATE 2004
PERFORMER "Ray Mantilla & The New Space Station"
TITLE "Man-Ti-Ya"
FILE "Ray Mantilla & The New Space Station - Man-Ti-Ya.wav" WAVE
TRACK 01 AUDIO
TITLE "Apple Turnover"
PERFORMER "Ray Mantilla & The New Space Station"
ISRC USSTR0405901
INDEX 01 00:00:00
TRACK 02 AUDIO
TITLE "Mother's Day"
PERFORMER "Ray Mantilla & The New Space Station"
ISRC USSTR0405902
INDEX 00 05:13:74
INDEX 01 05:15:52
TRACK 03 AUDIO
TITLE "TBA"
PERFORMER "Ray Mantilla & The New Space Station"
ISRC USSTR0405903
INDEX 00 11:51:69
INDEX 01 11:53:30
TRACK 04 AUDIO
TITLE "Hop Scotch"
PERFORMER "Ray Mantilla & The New Space Station"
ISRC USSTR0405904
INDEX 00 14:46:59
INDEX 01 14:47:39
TRACK 05 AUDIO
TITLE "The Man I Love"
PERFORMER "Ray Mantilla & The New Space Station"
ISRC USSTR0405905
INDEX 00 22:19:45
INDEX 01 22:21:13
TRACK 06 AUDIO
TITLE "African Holiday"
PERFORMER "Ray Mantilla & The New Space Station"
ISRC USSTR0405906
INDEX 00 27:40:70
INDEX 01 27:42:70
TRACK 07 AUDIO
TITLE "Eight Ball"
PERFORMER "Ray Mantilla & The New Space Station"
ISRC USSTR0405907
INDEX 00 32:32:41
INDEX 01 32:33:62
TRACK 08 AUDIO
TITLE "Go Between"
PERFORMER "Ray Mantilla & The New Space Station"
ISRC USSTR0405908
INDEX 00 40:00:37
INDEX 01 40:02:27
TRACK 09 AUDIO
TITLE "Mantillon"
PERFORMER "Ray Mantilla & The New Space Station"
ISRC USSTR0405909
INDEX 01 42:44:70
TRACK 10 AUDIO
TITLE "Mantilla's Jam Too"
PERFORMER "Ray Mantilla & The New Space Station"
ISRC USSTR0405910
INDEX 00 49:55:43
INDEX 01 49:57:30
 
Review by Scott Yanow
Ray Mantilla's Space Station is his regular group and works mostly in Europe. Although tied to the bebop tradition, Mantilla's soloists are actually much more modern, closer to post-bop than to hard bop. Because the septet works together often, they have developed their own fresh material which consists mostly of originals by Mantilla and pianist Eddy Martinez. The only standard on the date is a ballad version of "The Man I Love." The horn solos are a natural part of the arrangements and vice versa with plenty of fine spots for baritonist Enrique Fernandez, Willie Williams on tenor and soprano, and trumpeter Guido Gonzalez. In addition there are some percussion solos for the leader along the way. And while the music is modern and often complex, the rhythms generated by Mantilla and drummer Bill Elder keep the proceedings fairly accessible and danceable. Mantilla's New Space Station is a band worth exploring.
Взамен ушедшей в архив.
02:27
250
Нет комментариев. Ваш будет первым!