Поиск

(Afro-Cuban Jazz) Ruben Gonzalez - Introducing.. - 1997, FLAC (image+.cue), lossless

(Afro-Cuban Jazz) Ruben Gonzalez - Introducing.. - 1997, FLAC (image+.cue), lossless
Ruben Gonzalez / Introducing..
Жанр: Afro-Cuban Jazz
Страна-производитель диска: usa
Год издания диска: 1997
Издатель (лейбл): World Circuit
Номер по каталогу: 79477-2
Страна: cuba
Аудиокодек: FLAC (*.flac)
Тип рипа: image+.cue
Битрейт аудио: lossless
Продолжительность: 45.59
Источник (релизер): свой диск
Наличие сканов в содержимом раздачи: да
Треклист:
01. La Engañadora
02. Cumbanchero
03. Tres Lindas Cubanas
04. Melodía Del Río
05. Mandinga
06. Siboney
07. Almendra
08. Tumbao
09. Como Siento Yo
 
Лог создания рипа
Exact Audio Copy V0.99 prebeta 5 from 4. May 2009
EAC extraction logfile from 14. October 2012, 14:25
Rubйn Gonzбlez / introducing... Rubйn Gonzбlez
Used drive : ASUS DRW-24B3ST Adapter: 1 ID: 1
Read mode : Secure
Utilize accurate stream : Yes
Defeat audio cache : Yes
Make use of C2 pointers : No
Read offset correction : 6
Overread into Lead-In and Lead-Out : No
Fill up missing offset samples with silence : Yes
Delete leading and trailing silent blocks : No
Null samples used in CRC calculations : Yes
Used interface : Native Win32 interface for Win NT & 2000
Used output format : User Defined Encoder
Selected bitrate : 1024 kBit/s
Quality : High
Add ID3 tag : No
Command line compressor : C:\Program Files\Exact Audio Copy\FLAC\FLAC.EXE
Additional command line options : -8 -V %s
TOC of the extracted CD
Track | Start | Length | Start sector | End sector
---------------------------------------------------------
1 | 0:00.00 | 2:32.62 | 0 | 11461
2 | 2:32.62 | 4:35.23 | 11462 | 32109
3 | 7:08.10 | 5:22.02 | 32110 | 56261
4 | 12:30.12 | 4:42.53 | 56262 | 77464
5 | 17:12.65 | 8:28.37 | 77465 | 115601
6 | 25:41.27 | 2:32.63 | 115602 | 127064
7 | 28:14.15 | 9:53.00 | 127065 | 171539
8 | 38:07.15 | 5:11.62 | 171540 | 194926
9 | 43:19.02 | 2:40.63 | 194927 | 206989
Range status and errors
Selected range
Filename C:\EAC\Rubйn Gonzбlez - introducing... Rubйn Gonzбlez.wav
Peak level 100.0 %
Range quality 100.0 %
Copy CRC 9EF4D8D3
Copy OK
No errors occurred
AccurateRip summary
Track 1 accurately ripped (confidence 18) [E1FD0DEF]
Track 2 accurately ripped (confidence 18) [E865AA4D]
Track 3 accurately ripped (confidence 18) [3870A2E7]
Track 4 accurately ripped (confidence 18) [A0309345]
Track 5 accurately ripped (confidence 18) [AC142CFF]
Track 6 accurately ripped (confidence 18) [0DEAC86B]
Track 7 accurately ripped (confidence 18) [3FB25190]
Track 8 accurately ripped (confidence 17) [2F734B48]
Track 9 accurately ripped (confidence 18) [5AF686FA]
All tracks accurately ripped
End of status report
Доп. информация: Мой диск. Фирменный, Правда сейчас уже бывший мой, Рипанул сам
02:29
445
Нет комментариев. Ваш будет первым!